<?xml version="1.0" standalone="no"?>
<!DOCTYPE svg PUBLIC "-//W3C//DTD SVG 1.1//EN" "http://www.w3.org/Graphics/SVG/1.1/DTD/svg11.dtd" >
<svg xmlns="http://www.w3.org/2000/svg">
<metadata>Generated by IcoMoon</metadata>
<defs>
<font id="webapp" horiz-adv-x="1024">
<font-face units-per-em="1024" ascent="960" descent="-64" />
<missing-glyph horiz-adv-x="1024" />
<glyph unicode="&#x20;" horiz-adv-x="512" d="" />
<glyph unicode="&#xe3fa;" glyph-name="haf_ic_lens" d="M512 852.667c236 0 426-190 426-426s-190-426-426-426-426 190-426 426 190 426 426 426z" />
<glyph unicode="&#xe53b;" glyph-name="haf_ic_layers" d="M512 256.667c-128.024 99.309-255.626 199.040-384 298l384 298 384-298c-128.375-98.958-255.974-198.693-384-298zM512 146.667l314 246 70-54-384-298-384 298 70 54z" />
<glyph unicode="&#xe55c;" glyph-name="haf_ic_my_location" d="M512 128.667c166 0 298 132 298 298s-132 298-298 298-298-132-298-298 132-298 298-298zM894 468.667h88v-84h-88c-20-178-162-320-340-340v-88h-84v88c-178 20-320 162-340 340h-88v84h88c20 178 162 320 340 340v88h84v-88c178-20 320-162 340-340zM512 596.667c94 0 170-76 170-170s-76-170-170-170-170 76-170 170 76 170 170 170z" />
<glyph unicode="&#xe5d2;" glyph-name="haf_ic_menu" d="M128 682.667h768v-86h-768v86zM128 384.667v84h768v-84h-768zM128 170.667v86h768v-86h-768z" />
<glyph unicode="&#xe600;" glyph-name="entrypoint_right" d="M0 960v-1024h1024v1024h-1024zM133.44 746.56h517.76v-59.84h-457.92v-477.44h457.92v-59.84h-517.76v597.12zM725.12 613.12l165.44-165.12-165.44-165.12-44.8 44.48 101.76 90.88h-369.6v59.52h369.6l-101.76 90.88 44.8 44.48z" />
<glyph unicode="&#xe601;" glyph-name="haf_arrow_radar" d="M510.080 746.56c-5.62-0.856-10.11-4.899-11.606-10.199l-71.274-227.241c-0.367-1.203-0.579-2.585-0.579-4.017 0-7.856 6.368-14.224 14.224-14.224 0.040 0 0.081 0 0.121 0.001h56.954v-327.36c-0.091-0.606-0.144-1.306-0.144-2.017 0-7.856 6.368-14.224 14.224-14.224s14.224 6.368 14.224 14.224c0 0.712-0.052 1.411-0.153 2.095l0.009 327.283h56.96c0.034 0 0.075 0 0.115 0 7.856 0 14.224 6.368 14.224 14.224 0 1.432-0.212 2.814-0.605 4.117l-71.334 227.419c-1.848 5.858-7.233 10.030-13.592 10.030-0.623 0-1.237-0.040-1.84-0.118z" />
<glyph unicode="&#xe602;" glyph-name="haf_currpos" d="M510.4 832.32c-7.071-0.897-12.483-6.875-12.483-14.117 0-0.1 0.001-0.199 0.003-0.298v-42.225c-169.913-7.157-306.443-143.685-313.6-313.6h-42.24c-0.384 0.037-0.829 0.058-1.28 0.058s-0.896-0.021-1.336-0.062c-6.488-1.361-11.335-7.082-11.335-13.935 0-7.76 6.214-14.068 13.937-14.221h42.254c7.156-169.906 143.673-306.442 313.6-313.6v-42.24c-0.091-0.606-0.144-1.306-0.144-2.017 0-7.856 6.368-14.224 14.224-14.224s14.224 6.368 14.224 14.224c0 0.712-0.052 1.411-0.153 2.095l0.009 42.163c169.91 7.157 306.443 143.69 313.6 313.6h42.24c0.606-0.091 1.306-0.144 2.017-0.144 7.856 0 14.224 6.368 14.224 14.224s-6.368 14.224-14.224 14.224c-0.712 0-1.411-0.052-2.095-0.153l-42.163 0.009c-7.158 169.918-143.695 306.443-313.6 313.6v42.24c0.001 0.053 0.001 0.115 0.001 0.177 0 7.856-6.368 14.224-14.224 14.224-0.062 0-0.125 0-0.187-0.001-0.182 0.009-0.405 0.015-0.631 0.015s-0.449-0.005-0.672-0.016zM496.64 747.2c0.426 0.022 0.854-0.020 1.28 0v-41.6c-0.091-0.606-0.144-1.306-0.144-2.017 0-7.856 6.368-14.224 14.224-14.224s14.224 6.368 14.224 14.224c0 0.712-0.052 1.411-0.153 2.095l0.009 41.523c154.404-7.149 277.971-130.712 285.12-285.12h-41.6c-0.432 0.047-0.933 0.073-1.44 0.073s-1.008-0.027-1.502-0.078c-6.477-1.365-11.317-7.083-11.317-13.931 0-7.856 6.368-14.224 14.224-14.224 0.012 0 0.024 0 0.037 0h41.598c-7.149-154.399-130.721-277.971-285.12-285.12v41.6c0.001 0.075 0.002 0.163 0.002 0.251 0 7.856-6.368 14.224-14.224 14.224-0.514 0-1.021-0.027-1.521-0.080-7.009-0.892-12.421-6.87-12.421-14.111 0-0.1 0.001-0.199 0.003-0.298v-41.585c-154.417 7.149-277.972 130.718-285.12 285.12h41.6c0.606-0.091 1.306-0.144 2.017-0.144 7.856 0 14.224 6.368 14.224 14.224s-6.368 14.224-14.224 14.224c-0.712 0-1.411-0.052-2.095-0.153l-41.523 0.009c7.129 153.985 130.025 277.351 283.84 285.12zM512 504.64c-31.222 0-56.96-25.418-56.96-56.64 0-31.212 25.738-56.64 56.96-56.64s56.96 25.428 56.96 56.64c0 31.222-25.738 56.64-56.96 56.64z" />
<glyph unicode="&#xe603;" glyph-name="haf_direction" d="M323.2 791.040c-3.719-0.307-6.992-2.002-9.341-4.56l-172.099-172.080c-1.845-1.727-3.225-3.928-3.947-6.409 0.691 1.723 0.237-0.007 0.127-1.83-0.157 0.9-0.444-0.553-0.495-2.067 0.142 1.427 0.133 1.148 0.133 0.866s0.008-0.561 0.024-0.838c0.029-2.99 1.002-5.786 2.637-8.076 1.374-1.583 3.194-2.923 5.263-3.788-2.12 0.503-0.063-0.873 2.265-1.663l166.473-168.515c2.58-2.581 6.144-4.177 10.082-4.177 7.873 0 14.255 6.382 14.255 14.255 0 3.937-1.596 7.502-4.177 10.082l-148.16 147.84h515.2c7.865 0 14.24 6.375 14.24 14.24s-6.375 14.24-14.24 14.24h-515.52l148.48 148.16c2.63 2.583 4.259 6.176 4.259 10.15 0 7.856-6.368 14.224-14.224 14.224-0.435 0-0.865-0.020-1.29-0.058zM698.24 478.4c-7.41-0.542-13.216-6.687-13.216-14.188 0-4.128 1.758-7.845 4.567-10.443l148.169-147.849h-515.2c-7.865 0-14.24-6.375-14.24-14.24s6.375-14.24 14.24-14.24h515.2l-148.16-148.16c-2.581-2.58-4.177-6.144-4.177-10.082 0-7.873 6.382-14.255 14.255-14.255 3.937 0 7.502 1.596 10.082 4.177l172.48 172.48c1.829 1.923 3.129 4.367 3.653 7.087-0.104-1.015 0.284 0.834 0.284 2.774 0 0.585-0.035 1.161-0.104 1.727-0.003 0.994-0.127 2.022-0.355 3.011-0.721 2.12-1.986 4.097-3.632 5.682 0.442-0.167-1.259 1.346-3.24 2.403 3.346-2.524 3.29-2.523 3.234-2.523s-0.112 0-0.169-0.001l-172.151 172.16c-2.586 2.746-6.24 4.462-10.295 4.48-0.136 0.009-0.359 0.014-0.585 0.014s-0.449-0.005-0.672-0.016z" />
<glyph unicode="&#xe604;" glyph-name="haf_feedback_result_info" d="M497.92 886.72c-99.411 0-179.84-86.512-179.84-193.28s80.429-193.28 179.84-193.28c99.411 0 180.16 86.512 180.16 193.28s-80.749 193.28-180.16 193.28zM681.28 455.36c-49.828-41.247-113.769-69.12-183.36-69.12-64.778 0-124.321 26.481-172.48 62.72-143.974-67.85-243.52-216-243.52-441.28h860.16c0 225.28-107.507 384.12-260.8 447.68z" />
<glyph unicode="&#xe605;" glyph-name="haf_halt" d="M512 803.52c-196.214 0-355.52-159.326-355.52-355.52 0-196.184 159.305-355.52 355.52-355.52 196.185 0 355.52 159.335 355.52 355.52 0 196.195-159.335 355.52-355.52 355.52zM512 775.040c180.811 0 327.040-146.219 327.040-327.040 0-180.81-146.23-327.040-327.040-327.040-180.842 0-327.040 146.228-327.040 327.040 0 180.823 146.197 327.040 327.040 327.040zM417.6 593.6c-4.419 0-10.817-1.13-16.32-5.44s-9.6-11.795-9.6-22.72v-253.44c0-10.922 4.097-18.41 9.6-22.72s11.902-5.44 16.32-5.44c4.273 0 10.244 1.129 15.68 5.44s9.6 11.799 9.6 22.72v109.12h138.24v-109.12c0-10.922 4.417-18.41 9.92-22.72s11.582-5.44 16-5.44c4.273 0 10.244 1.129 15.68 5.44s9.6 11.799 9.6 22.72v253.44c0 10.925-4.163 18.41-9.6 22.72s-11.41 5.44-15.68 5.44c-4.419 0-10.817-1.13-16.32-5.44s-9.6-11.795-9.6-22.72v-97.6h-138.24v97.6c0 10.925-4.163 18.41-9.6 22.72s-11.41 5.44-15.68 5.44z" />
<glyph unicode="&#xe606;" glyph-name="haf_ic_ar" d="M356.16 732.48c-7.618 0-12.459-4.406-15.36-7.68s-4.567-6.657-6.4-10.24c-3.666-7.165-6.91-15.342-9.92-23.36s-5.921-15.89-8.32-20.8c-0.633-1.296-0.808-1.462-1.28-2.24-60.372-0.396-102.186-4.040-103.36-4.16-0.018-0.002-1.6 0-1.6 0v-0.32c-14.051-0.567-26.004-7.706-35.52-16.96-9.898-9.625-17.92-21.755-17.92-36.8v-446.4h711.040v446.4c0 15.045-8.022 27.175-17.92 36.8-9.516 9.254-21.469 16.393-35.52 16.96v0.32c0 0-1.582-0.002-1.6 0-1.167 0.118-43.525 3.708-103.68 4.16-0.319 0.656-0.283 0.745-0.64 1.6-2.082 4.985-4.798 12.79-7.36 20.8s-4.926 16.284-8 23.36c-1.537 3.538-3.265 6.598-5.76 9.92s-6.88 8.64-15.36 8.64h-315.52zM360.96 704h304.64c0.345-0.67 0.565-0.69 0.96-1.6 2.129-4.901 4.815-12.521 7.36-20.48s5.079-16.048 8-23.040c1.46-3.496 2.79-6.63 5.12-9.92s6.395-8.96 15.36-8.96c66.3 0 108.8-4.16 108.8-4.16l0.64-0.32h0.64c2.84 0 11.183-3.351 17.28-9.28s9.28-13.731 9.28-16.32v-417.92h-654.080v417.92c0 2.589 3.183 10.391 9.28 16.32s14.44 9.28 17.28 9.28h0.64l0.64 0.32c0 0 41.953 4.16 107.52 4.16 8.063 0 12.662 4.739 15.36 8s4.353 6.386 6.080 9.92c3.454 7.067 6.615 15.409 9.6 23.36s5.859 15.668 8.32 20.48c0.65 1.27 0.797 1.489 1.28 2.24zM512.64 628.48c-105.282 0-191.040-85.758-191.040-191.040s85.758-190.72 191.040-190.72c105.282 0 191.040 85.438 191.040 190.72s-85.758 191.040-191.040 191.040zM512.64 600c89.908 0 162.56-72.652 162.56-162.56s-72.652-162.24-162.56-162.24c-89.908 0-162.56 72.332-162.56 162.24s72.652 162.56 162.56 162.56z" />
<glyph unicode="&#xe607;" glyph-name="haf_ic_btn_speak_now" d="M512 789.44c-71.452 0-132.16-58.092-132.16-129.92v-180.48c0-71.828 60.708-129.6 132.16-129.6 71.461 0 132.148 57.776 132.16 129.6v180.48c0 71.827-60.699 129.92-132.16 129.92zM512 760.96c56.088 0 103.68-45.717 103.68-101.44v-180.48c-0.009-55.725-47.592-101.12-103.68-101.12-56.077 0-103.68 45.399-103.68 101.12v180.48c0 55.721 47.603 101.44 103.68 101.44zM296.96 583.36c-7.071-0.897-12.483-6.875-12.483-14.117 0-0.1 0.001-0.199 0.003-0.298v-76.145c0-125.472 96.231-228.458 213.44-236.16v-121.6h-156.48c-0.239 0.014-0.519 0.023-0.8 0.023s-0.561-0.008-0.838-0.024c-7.487-0.433-13.425-6.642-13.425-14.238 0-7.877 6.386-14.262 14.262-14.262 0.282 0 0.562 0.008 0.84 0.024l163.482-0.002c2.023-1.172 4.451-1.864 7.040-1.864s5.017 0.692 7.109 1.901l163.451-0.037c7.865 0 14.24 6.375 14.24 14.24s-6.375 14.24-14.24 14.24h-156.48v121.6c117.052 7.74 213.12 110.714 213.12 236.16l0.32 76.16c0 7.865-6.375 14.24-14.24 14.24s-14.24-6.375-14.24-14.24l-0.32-76.16c0-115.364-91.774-208.32-198.72-208.32-107.089 0-199.040 92.956-199.040 208.32v76.16c0.002 0.086 0.003 0.187 0.003 0.288 0 7.856-6.368 14.224-14.224 14.224-0.627 0-1.245-0.041-1.851-0.119z" />
<glyph unicode="&#xe608;" glyph-name="haf_ic_clear" d="M309.44 663.68c-1.192-0.171-2.266-0.463-3.282-0.868-4.923-0.768-9.832-6.518-9.832-13.415 0-4.079 1.717-7.757 4.467-10.35l191.047-191.047-191.040-191.040c-2.581-2.58-4.177-6.144-4.177-10.082 0-7.873 6.382-14.255 14.255-14.255 3.937 0 7.502 1.596 10.082 4.177l191.040 191.040 191.040-191.040c2.58-2.581 6.144-4.177 10.082-4.177 7.873 0 14.255 6.382 14.255 14.255 0 3.937-1.596 7.502-4.177 10.082l-191.040 191.040 191.040 191.040c2.68 2.59 4.343 6.217 4.343 10.232 0 7.856-6.368 14.224-14.224 14.224-0.691 0-1.371-0.049-2.036-0.145-3.52-0.476-6.634-2.242-8.847-4.807l-190.437-190.384-191.040 191.040c-2.604 2.787-6.301 4.524-10.403 4.524-0.393 0-0.782-0.016-1.167-0.047z" />
<glyph unicode="&#xe609;" glyph-name="haf_ic_collapse" d="M509.76 553.92c-2.227-0.28-4.252-0.875-6.123-1.745-0.821-0.191-3.213-1.649-5.231-3.508 1.744 0.804 0.189-1.458-0.877-3.978 0.561 4.423-2.378 1.531-4.312-1.99 0.545 1.383-0.933-1.211-1.803-4.070l-164.695-161.348c-3.726-3.726-6.031-8.874-6.031-14.56 0-11.372 9.219-20.591 20.591-20.591 5.686 0 10.834 2.305 14.56 6.031l156.16 156.16 156.16-156.16c3.685-3.586 8.723-5.797 14.278-5.797 11.312 0 20.482 9.17 20.482 20.482 0 5.475-2.148 10.449-5.648 14.123 0.008 0.039 0.009 0.095 0.009 0.152s0 0.112-0.001 0.169l-170.88 170.551c-1.991 2.17-4.424 3.9-7.16 5.053 3.659-2.090 1.017-0.832-1.855-0.178 3.43-0.673 0.59 0.493-2.476 0.979 2.974-0.653 0.894-0.169-1.279-0.025 2.333 0.012 0.253 0.496-1.92 0.64 3.035-0.501 1.775-0.383 0.487-0.383-0.182 0-0.363-0.002-0.544-0.007-0.26 0.015-0.596 0.023-0.933 0.023s-0.673-0.008-1.007-0.024z" />
<glyph unicode="&#xe60a;" glyph-name="haf_ic_commit_search" d="M312.96 661.44c-1.192-0.171-2.266-0.463-3.282-0.868 0.614 0.511-0.402 0.362-1.377 0.113-1.522-0.538-3.264-1.56-4.728-2.883 0.107 0.388-1.694-1.469-2.919-3.688 0.381 1.246-0.911-0.755-1.656-3.004 0.961 2.146 0.36 0.433 0.104-1.391 0.217 2.256-0.384 0.544-0.64-1.28 0.458 2.248 0.094 0.54 0.061-1.248 0.033 0.665 0.031 0.497 0.031 0.328s0.003-0.337 0.009-0.504c-0.001-0.023-0.002-0.079-0.002-0.136s0-0.112 0.001-0.169v-249.591c0-7.865 6.375-14.24 14.24-14.24s14.24 6.375 14.24 14.24v215.68l374.080-374.080c2.58-2.581 6.144-4.177 10.082-4.177 7.873 0 14.255 6.382 14.255 14.255 0 3.937-1.596 7.502-4.177 10.082l-374.080 374.080h215.68c7.865 0 14.24 6.375 14.24 14.24s-6.375 14.24-14.24 14.24h-249.92z" />
<glyph unicode="&#xe60b;" glyph-name="haf_ic_connection" d="M512 832.32c-100.119 0-181.44-81.309-181.44-181.44 0-68.393 37.822-128.164 93.76-159.040 1.985-1.115 4.357-1.772 6.882-1.772 7.87 0 14.251 6.38 14.251 14.251 0 5.347-2.945 10.006-7.301 12.444-47.21 26.055-79.112 76.21-79.112 134.117 0 84.783 68.185 152.96 152.96 152.96 84.786 0 152.96-68.474 152.96-153.28 0-57.866-31.944-107.72-79.040-133.76-4.428-2.475-7.373-7.134-7.373-12.481 0-7.87 6.38-14.251 14.251-14.251 2.525 0 4.897 0.657 6.954 1.809 55.805 30.858 93.688 90.331 93.688 158.683 0 100.149-81.312 181.76-181.44 181.76zM512 732.16c-46.957 0-85.44-38.163-85.44-85.12 0-42.167 31.026-77.39 71.36-84.16v-329.6c-40.319-6.77-71.36-41.992-71.36-84.16 0-46.948 38.505-85.44 85.44-85.44 46.943 0 85.44 38.495 85.44 85.44 0 42.171-31.033 77.391-71.36 84.16v329.6c40.334 6.77 71.36 41.993 71.36 84.16 0 46.957-38.483 85.12-85.44 85.12z" />
<glyph unicode="&#xe60c;" glyph-name="haf_ic_date" d="M319.36 831.040c-17.828 0-32.64-14.812-32.64-32.64v-35.52h-30.72c-54.677-0.012-99.508-43.863-99.52-97.92v-71.040c-0.113-0.673-0.177-1.449-0.177-2.24s0.065-1.567 0.189-2.322c-0.020-0.109-0.026-0.333-0.026-0.558s0.005-0.449 0.016-0.672l-0.001-425.248c0.012-54.074 44.847-97.896 99.52-97.92h512c54.686 0.012 99.508 43.846 99.52 97.92v425.6c0.113 0.673 0.177 1.449 0.177 2.24s-0.065 1.567-0.189 2.322c0.020 0.109 0.026 0.333 0.026 0.558s-0.005 0.449-0.016 0.672l0.001 70.688c-0.012 54.065-44.836 97.908-99.52 97.92h-30.72v35.52c0 17.828-14.812 32.64-32.64 32.64h-15.68c-17.828 0-32.64-14.812-32.64-32.64v-35.52h-288.64v35.52c0 17.828-14.812 32.64-32.64 32.64h-15.68zM319.36 802.56h15.68c2.447 0 4.16-1.713 4.16-4.16v-117.76c0-2.447-1.713-4.16-4.16-4.16h-15.68c-2.447 0-4.16 1.713-4.16 4.16v117.76c0 2.447 1.713 4.16 4.16 4.16zM688.96 802.56h15.68c2.447 0 4.16-1.713 4.16-4.16v-117.76c0-2.447-1.713-4.16-4.16-4.16h-15.68c-2.447 0-4.16 1.713-4.16 4.16v65.28c0.113 0.673 0.177 1.449 0.177 2.24s-0.065 1.567-0.189 2.322c0.020 0.109 0.026 0.333 0.026 0.558s-0.005 0.449-0.016 0.672l0.001 46.688c0 2.447 1.713 4.16 4.16 4.16zM256 734.4h30.72v-53.76c0-17.828 14.812-32.64 32.64-32.64h15.68c17.828 0 32.64 14.812 32.64 32.64v53.76h288.64v-53.76c0-17.828 14.812-32.64 32.64-32.64h15.68c17.828 0 32.64 14.812 32.64 32.64v53.76h30.72c39.647-0.009 71.031-31.017 71.040-69.44v-59.52h-654.080v59.52c0.009 38.411 31.407 69.431 71.040 69.44zM184.96 576.96h654.080v-414.080c-0.009-38.435-31.395-69.431-71.040-69.44h-512c-39.637 0.017-71.031 31.005-71.040 69.44v414.080zM427.84 482.56c-6.948 0-14.858-2.969-24.32-10.56l-55.36-44.48c-8.324-6.723-11.84-14.52-11.84-21.44 0-13.539 10.484-24 23.36-24 5.161 0 11.947 1.698 17.92 6.4l27.84 23.040v-168c0-11.34 4.546-19.018 10.24-23.36s11.731-5.44 16-5.44c4.407 0 10.977 1.077 16.64 5.44s9.92 12.051 9.92 23.36v205.44c0 13.534-4.714 22.533-11.2 27.52s-14.087 6.080-19.2 6.080zM552.32 479.36c-8.974 0-16.505-2.161-21.76-7.36s-7.489-12.804-7.68-21.76l-2.56-85.44v-0.32c-0.199-9.911 3.729-16.823 8.64-20.48s10.023-4.16 13.12-4.16c4.232 0 7.32 0.876 11.84 1.92 10.314 2.415 20.815 3.84 29.12 3.84 12.956 0 25.848-2.831 35.2-9.6s15.68-17.141 15.68-35.2c0-28.093-18.766-42.88-41.6-42.88-15.535 0-27.816 6.69-36.16 17.6-7.717 10.019-15.661 12.8-22.4 12.8-13.642 0-24.96-10.893-24.96-24.64 0-6.753 2.229-13.206 7.68-19.84 16.952-20.355 42.776-32.32 74.56-32.32 26.141 0 50.482 8.472 68.16 24.64s28.48 39.986 28.48 69.12c0 26.613-9.981 48.229-26.56 62.72s-39.307 21.76-64.96 21.76c-7.258 0-16.075-1.162-24-2.56l1.92 43.52h79.36c10.248 0 17.757 4.059 21.76 9.28s4.8 10.989 4.8 15.040c0 4.051-0.797 9.819-4.8 15.040s-11.512 9.28-21.76 9.28h-101.12z" />
<glyph unicode="&#xe60d;" glyph-name="haf_ic_dialog_time" d="M512 803.52c-196.176 0-355.52-159.334-355.52-355.52s159.344-355.52 355.52-355.52c196.176 0 355.52 159.334 355.52 355.52s-159.344 355.52-355.52 355.52zM512 775.040c180.8 0 327.040-146.23 327.040-327.040s-146.24-327.040-327.040-327.040c-180.8 0-327.040 146.23-327.040 327.040s146.24 327.040 327.040 327.040zM325.44 647.040c-7.275-0.688-12.922-6.767-12.922-14.164 0-4.14 1.769-7.867 4.592-10.467l176.33-176.009 0.64 0.64c0.129-0.112 0.192-0.214 0.32-0.32l-0.64-0.64c0.865-0.85 1.968-1.17 2.88-1.92 0.041-0.024 0.281 0.022 0.32 0 2.98-2.42 5.946-4.9 9.28-6.4v-0.32c0.079-0.035 0.241 0.035 0.32 0 1.949-0.85 3.259-1.053 4.16-1.28 0.447-0.156 0.538-0.193 0.96-0.32 3.157-0.953 5.871-1.389 7.36-1.6 0.048-0.001 0.104-0.001 0.16-0.001s0.112 0 0.169 0.001c1.577-0.206 3.664-0.377 6.391-0.32 0.272 0.006 0.355-0.013 0.64 0h184.64c0.606-0.091 1.306-0.144 2.017-0.144 7.856 0 14.224 6.368 14.224 14.224s-6.368 14.224-14.224 14.224c-0.712 0-1.411-0.052-2.095-0.153l-185.203 0.009c-0.095 0.002-0.207 0.004-0.32 0.004s-0.225-0.001-0.337-0.004c0.055 0.002-0.82 0.198-1.903 0.32-0.198 0.028-0.14-0.027-0.32 0-1.689 0.254-2.955 0.666-2.88 0.64-1.191 0.459-2.569 0.769-4.006 0.866 2.54-0.408 2.282-0.245 2.086-0.226-0.039 0.040-0.391-0.007-0.32 0-1.417 0.618-2.902 1.393-3.84 2.24-1.322 1.364-2.911 2.461-4.682 3.21 3.040-1.527 1.451-0.429-0.32 0.32l3.722-2.25c-1.531 1.295-3.367 2.281-5.382 2.835l-169.978 172.525c-2.605 2.803-6.312 4.55-10.428 4.55-0.497 0-0.989-0.026-1.473-0.075z" />
<glyph unicode="&#xe60e;" glyph-name="haf_ic_direct" d="M769.6 789.12c-21.478 0.001-42.901-8.015-59.2-24.32-29.214-29.203-32.081-74.872-8.96-107.52l-398.72-398.72c-13.712 9.781-30.289 15.68-48.32 15.68-46.115 0-83.84-37.725-83.84-83.84s37.725-83.84 83.84-83.84c46.115 0 83.84 37.725 83.84 83.84 0 18.031-5.899 34.608-15.68 48.32l398.72 398.72c32.648-23.121 78.317-20.254 107.52 8.96 32.616 32.592 32.614 85.811 0 118.4-16.294 16.3-37.722 24.319-59.2 24.32z" />
<glyph unicode="&#xe60f;" glyph-name="haf_ic_down" d="M682.88 554.24c-1.336-0.084-2.58-0.282-3.782-0.586-4.013-0.412-8.549-2.978-11.76-6.716l-155.337-155.258-156.16 156.16c-3.685 3.586-8.723 5.797-14.278 5.797-11.312 0-20.482-9.17-20.482-20.482 0-5.475 2.148-10.449 5.648-14.123l-0.008-0.312 170.88-170.56c2.34-2.293 5.232-4.030 8.458-4.994-2.447 0.459 0.972-0.839 4.671-1.154-1.473 0.18-0.213 0.061 1.074 0.061 0.182 0 0.363 0.002 0.544 0.007 2.182 0.013 4.303 0.373 6.289 1.030 2.549 0.906 4.941 2.364 6.959 4.223-1.744-0.804-0.189 1.458 0.877 3.978-0.561-4.423 2.378-1.531 4.312 1.99-0.545-1.383 0.933 1.211 1.803 4.070l164.695 161.348c4.054 3.753 6.583 9.103 6.583 15.044 0 11.312-9.17 20.482-20.482 20.482-0.176 0-0.352-0.002-0.527-0.007z" />
<glyph unicode="&#xe610;" glyph-name="haf_ic_later" d="M428.16 256.96c5.273 0.397 9.934 2.735 13.327 6.293-0.48-0.533-0.424-0.534-0.367-0.534s0.112 0 0.169 0.001l170.551 170.88c3.009 3.025 5.080 6.987 5.736 11.41 0.105-0.973 0.588 1.108 0.733 3.281-0.501-3.035-0.383-1.775-0.383-0.487 0 0.182-0.002 0.363-0.007 0.544-0.013 2.182-0.373 4.303-1.030 6.289-0.906 2.549-2.364 4.941-4.223 6.959 0.804-1.744-1.458-0.189-3.978 0.877 4.423-0.561 1.531 2.378-1.99 4.312 1.383-0.545-1.211 0.933-4.070 1.803l-161.348 164.695c-3.726 3.726-8.874 6.031-14.56 6.031-11.372 0-20.591-9.219-20.591-20.591 0-5.686 2.305-10.834 6.031-14.56l156.16-156.16-156.16-156.16c-3.688-3.703-5.968-8.811-5.968-14.452 0-11.312 9.17-20.482 20.482-20.482 0.523 0 1.041 0.020 1.554 0.058z" />
<glyph unicode="&#xe611;" glyph-name="haf_ic_edit" d="M751.36 832c-13.902 0-27.885-5.485-38.4-16l-544.96-544.64-0.96-4.48-38.72-184.32-4.8-23.040 23.040 4.8 188.8 39.68 544.64 544.96c21.031 21.031 21.031 55.449 0 76.48l-90.56 90.56c-10.515 10.515-24.178 16-38.080 16zM751.36 801.28c5.989 0 11.701-2.101 16.32-6.72l90.88-90.88c9.239-9.239 9.239-23.721 0-32.96l-72.96-72.96c-22.662 56.884-71.007 100.8-130.88 116.8l80 80c4.619 4.619 10.651 6.72 16.64 6.72zM628.8 688.64c63.264-9.443 114.746-54.767 133.12-114.56l-24.64-24.64c-22.662 56.884-71.007 100.8-130.88 116.8l22.4 22.4zM580.16 640c63.264-9.443 114.746-54.767 133.12-114.56l-349.76-349.76-1.92 33.6-0.64 14.080-14.080 0.32-55.36 1.6 2.88 57.28 0.64 15.68-15.68 0.32-40 0.64 340.8 340.8zM209.28 269.12l53.76-0.96-2.88-56.64-0.64-15.68 15.36-0.64 56.96-1.92 2.56-46.72-14.4-14.4-66.56-14.080-71.36 71.36 14.080 66.56 13.12 13.12z" />
<glyph unicode="&#xe612;" glyph-name="haf_ic_expand" d="M682.88 554.24c-1.336-0.084-2.58-0.282-3.782-0.586-4.013-0.412-8.549-2.978-11.76-6.716l-155.337-155.258-156.16 156.16c-3.685 3.586-8.723 5.797-14.278 5.797-11.312 0-20.482-9.17-20.482-20.482 0-5.475 2.148-10.449 5.648-14.123l-0.008-0.312 170.88-170.56c2.34-2.293 5.232-4.030 8.458-4.994-2.447 0.459 0.972-0.839 4.671-1.154-1.473 0.18-0.213 0.061 1.074 0.061 0.182 0 0.363 0.002 0.544 0.007 2.182 0.013 4.303 0.373 6.289 1.030 2.549 0.906 4.941 2.364 6.959 4.223-1.744-0.804-0.189 1.458 0.877 3.978-0.561-4.423 2.378-1.531 4.312 1.99-0.545-1.383 0.933 1.211 1.803 4.070l164.695 161.348c4.054 3.753 6.583 9.103 6.583 15.044 0 11.312-9.17 20.482-20.482 20.482-0.176 0-0.352-0.002-0.527-0.007z" />
<glyph unicode="&#xe613;" glyph-name="haf_ic_extnav" d="M512 832c-21.715 0-43.346-8.484-59.84-24.96l-299.2-299.2c-0.048 0.001-0.104 0.001-0.16 0.001s-0.112 0-0.169-0.001c-32.944-32.989-32.944-86.691 0.009-119.68 0.048-0.001 0.104-0.001 0.16-0.001s0.112 0 0.169 0.001l299.191-299.2c-0.001-0.048-0.001-0.104-0.001-0.16s0-0.112 0.001-0.169c32.989-32.944 86.691-32.944 119.68 0.009 0.001 0.048 0.001 0.104 0.001 0.16s0 0.112-0.001 0.169l299.2 299.191c0.048-0.001 0.104-0.001 0.16-0.001s0.112 0 0.169 0.001c32.944 32.989 32.944 86.691-0.009 119.68-0.048 0.001-0.104 0.001-0.16 0.001s-0.112 0-0.169-0.001l-299.191 299.2c-16.494 16.476-38.125 24.96-59.84 24.96zM512 803.52c14.381 0 28.619-5.271 39.68-16.32l299.52-299.52c22.098-22.123 22.098-57.237 0-79.36l-299.52-299.52c-22.123-22.098-57.237-22.098-79.36 0l-299.52 299.52c-22.098 22.123-22.098 57.237 0 79.36l299.52 299.52c11.061 11.049 25.299 16.32 39.68 16.32zM550.080 625.6c-7.41-0.542-13.216-6.687-13.216-14.188 0-4.128 1.758-7.845 4.567-10.443l66.889-66.889h-198.72c-7.744-0.080-14-6.337-14.080-14.073v-235.207c-0.091-0.606-0.144-1.306-0.144-2.017 0-7.856 6.368-14.224 14.224-14.224s14.224 6.368 14.224 14.224c0 0.712-0.052 1.411-0.153 2.095l0.009 220.723h184.96l-67.2-66.88c-2.006-2.433-3.222-5.582-3.222-9.016 0-7.856 6.368-14.224 14.224-14.224 3.353 0 6.435 1.16 8.867 3.101l0.291-0.022 91.2 91.2c1.295 1.531 2.281 3.367 2.835 5.382-0.081-2.136 1.174 0.353 1.635 3.11-0.428-1.515-0.311-0.485-0.31 0.573 0.026 0.221 0.041 0.601 0.041 0.984 0 1.555-0.249 3.051-0.71 4.451-0.142 1.092-0.434 2.166-0.839 3.182-0.615 0.31-2.182 1.946-4.050 3.156 1.828-0.857 0.337 0.576-1.403 1.646 1.958-1.177 0.077 0.228-2.070 1.122l-86.329 87.754c-2.586 2.746-6.24 4.462-10.295 4.48-0.136 0.009-0.359 0.014-0.585 0.014s-0.449-0.005-0.672-0.016z" />
<glyph unicode="&#xe614;" glyph-name="haf_ic_familiar" d="M467.2 793.92c-62.331 0-133.484-24.532-146.56-117.44v-87.040c-7.137-11.551-11.52-26.045-11.52-37.76 0-8.653 4.39-26.291 8.64-36.48 2.888-5.775 9.912-9.979 12.8-17.28 11.551-26.153 21.855-55.045 45.12-82.56v-26.24c-60.969-50.78-122.071-66.885-183.040-94.4-17.5-7.301-44.867-13.133-49.28-37.76v-48.96c4.413-4.25 7.345-8.96 13.12-8.96 4.413 0 13.112 4.539 16 11.84v40.32c58.081 29.041 165.335 61.015 227.84 123.52 7.137 7.137 5.76 18.685 5.76 30.4 0 2.888 1.533 17.585-2.88 23.36-24.627 31.939-36.211 59.525-46.4 87.040-1.362 5.939-8.632 7.427-11.52 11.84-7.301 11.551-7.36 13.097-7.36 21.76 0 12.913 4.539 17.324 11.84 30.4v82.56c0 66.744 44.92 101.76 117.44 101.76 52.142 0 110.139-14.579 117.44-94.4v-91.2c0-2.888 13.12-20.457 13.12-29.12 0-3.052-4.227-14.705-8.64-20.48-2.888-4.25-10.158-7.27-11.52-11.52-7.301-10.189-8.707-23.329-13.12-34.88-8.827-20.378-24.609-37.542-36.16-57.92v-39.36c0-8.827 27.564-39.040 40.64-39.040 8.663 0 15.68 7.017 15.68 15.68 0 15.964-25.92 14.725-25.92 42.24 0 3.052-2.888 8.952 0 11.84 8.663 15.964 21.745 28.844 27.52 41.92 7.301 14.602 8.617 32.051 17.28 42.24 13.076 20.388 21.76 36.196 21.76 52.16 0 8.653-5.827 26.291-10.24 36.48v75.52c0 4.25-2.798 18.865-4.16 24.64-15.964 87.132-90.022 105.792-143.68 105.28zM732.48 398.080c-66.744 0-136.609-46.556-148.16-135.040v-26.24c0-2.888 4.472-23.091 7.36-33.28 24.627-66.744 88.484-101.44 140.8-101.44 76.933 0.010 148.16 66.732 148.16 149.44 0 76.943-66.803 146.734-148.16 146.56zM730.88 366.080c71.332 0.174 117.76-49.096 117.76-115.84 0-65.393-50.767-116.16-116.16-116.16-40.591 0-91.374 20.17-110.4 75.2-2.888 8.663-5.76 23.352-5.76 26.24v30.4c10.189 69.632 63.77 100.16 114.56 100.16zM789.76 302.72c-1.464 0.020-2.519-0.156-3.2-1.6-27.679-26.163-52.173-55.127-76.8-81.28-11.715 11.551-26.284 34.56-39.36 34.56-8.827 0-14.72-5.491-14.72-15.68 0-2.888-0.008-7.352 2.88-10.24 8.663-10.025 37.804-46.4 50.88-46.4 2.888 0 5.752-0.008 8.64 2.88 11.715 11.551 24.929 26.045 36.48 37.76 11.715 14.438 55.040 54.771 55.040 64.96 0 8.663-4.375 14.71-14.4 14.72-2.125 0-3.976 0.3-5.44 0.32z" />
<glyph unicode="&#xe615;" glyph-name="haf_ic_fav" d="M512 794.56c-16.114 0.015-27.57-11.526-33.6-23.68 0-0.048-0.001-0.104-0.001-0.16s0-0.112 0.001-0.169l-81.6-165.431c-3.657-7.376-22.003-20.697-30.4-22.080-0.061-0.010-0.259 0.009-0.32 0l-182.080-26.24c-13.414-1.947-27.943-9.297-32.96-24.64s2.454-29.599 12.16-39.040l132.16-128.96c5.923-5.73 12.917-27.378 11.52-35.52l-31.040-182.080c-0.048 0-0.104 0.001-0.16 0.001s-0.112 0-0.169-0.001c-2.199-13.31 0.095-29.532 13.129-39.040s29.316-6.546 41.28-0.32l163.2 85.76c7.398 3.9 30.38 3.893 37.76 0l163.2-85.76c11.962-6.248 27.923-9.172 40.96 0.32s15.332 25.729 13.12 39.040l-31.36 182.080c-1.413 8.022 5.632 29.779 11.52 35.52l132.48 128.96c9.705 9.433 17.182 23.695 12.16 39.040s-19.556 22.686-32.96 24.64l-182.72 26.24c-8.124 1.198-26.388 14.62-30.080 22.080l-81.92 165.44h0.32c-5.925 12.209-17.486 23.984-33.6 24zM512 742.080l76.8-155.84c12.139-24.53 35.381-41.456 62.4-45.44l172.16-24.64-124.8-121.28c0-0.048-0.001-0.104-0.001-0.16s0-0.112 0.001-0.169c-19.61-19.113-28.452-46.19-23.68-73.271l29.44-171.2-153.6 80.64c-24.261 12.798-53.176 12.791-77.44 0l-153.6-80.64 29.44 171.2c4.624 26.96-4.2 54.447-24 73.6l-124.48 121.28 171.84 24.64c27.098 3.965 50.233 20.901 62.4 45.44l77.12 155.84z" />
<glyph unicode="&#xe616;" glyph-name="haf_ic_fav_active" d="M512 742.080l-13.76-27.84h27.52l-13.76 27.84zM491.52 700.8l-13.44-27.52h13.44v27.52zM491.52 673.28v-40.96h40.96v40.96h-40.96zM532.48 673.28h13.44l-13.44 27.2v-27.2zM532.48 632.32v-40.96h40.96v25.92l-7.36 15.040h-33.6zM573.44 591.36v-40.96h40.96v5.44c-10.705 7.796-19.53 18.135-25.6 30.4l-2.56 5.12h-12.8zM614.4 550.4v-40.96h40.96v30.72l-4.16 0.64c-10.132 1.494-19.797 4.747-28.48 9.6h-8.32zM655.36 509.44v-40.96h40.96v40.96h-40.96zM696.32 509.44h40.96v19.2l-40.96 5.76v-24.96zM737.28 509.44v-40.96h37.12l3.84 3.84v37.12h-40.96zM778.24 509.44h38.080l2.88 2.56v4.8l-40.96 5.76v-13.12zM737.28 468.48h-40.96v-40.96h35.84l5.12 5.12v35.84zM696.32 427.52h-40.96v-40.96h36.16c1.489 1.873 3.137 3.682 4.8 5.44v35.52zM655.36 386.56h-40.96v-40.96h40.96v40.96zM655.36 345.6v-40.96h22.4l-2.88 16.64c-1.444 8.194-1.29 16.347-0.32 24.32h-19.2zM655.36 304.64h-40.96v-40.96h40.96v40.96zM655.36 263.68v-40.96h36.48l-7.040 40.96h-29.44zM655.36 222.72h-40.96v-25.28l29.44-15.68h11.52v40.96zM655.36 181.76v-6.080l40.96-21.44v27.52h-40.96zM696.32 181.76h2.56l-2.56 14.72v-14.72zM614.4 222.72v40.96h-40.96v-40.96h40.96zM573.44 222.72h-7.36l7.36-3.84v3.84zM573.44 263.68v40.96h-40.96v-40.96h40.96zM532.48 263.68h-40.96v-26.24c13.44 3.428 27.521 3.427 40.96 0v26.24zM491.52 263.68v40.96h-40.96v-40.96h40.96zM450.56 263.68h-40.96v-40.96h40.96v40.96zM450.56 222.72v-3.84l7.36 3.84h-7.36zM409.6 222.72h-40.96v-40.96h11.52l29.44 15.68v25.28zM368.64 181.76h-40.96v-27.52l40.96 21.44v6.080zM327.68 181.76v14.72l-2.56-14.72h2.56zM368.64 222.72v40.96h-29.44l-7.040-40.96h36.48zM368.64 263.68h40.96v40.96h-40.96v-40.96zM368.64 304.64v40.96h-19.2c0.995-8.009 1.079-16.162-0.32-24.32l-2.88-16.64h22.4zM368.64 345.6h40.96v40.96h-40.96v-40.96zM368.64 386.56v40.96h-40.96v-35.52c1.648-1.746 3.325-3.578 4.8-5.44h36.16zM327.68 427.52v40.96h-40.96v-36.16l4.8-4.8h36.16zM286.72 468.48v40.96h-40.96v-37.12l3.84-3.84h37.12zM245.76 509.44v13.12l-40.96-5.76v-4.8l2.88-2.56h38.080zM286.72 509.44h40.96v24.96l-40.96-5.76v-19.2zM327.68 509.44v-40.96h40.96v40.96h-40.96zM368.64 509.44h40.96v40.96h-8.64c-8.678-4.852-18.318-8.113-28.48-9.6l-3.84-0.64v-30.72zM409.6 550.4h40.96v40.96h-13.12l-2.56-5.12c-6.015-12.131-14.75-22.314-25.28-30.080v-5.76zM450.56 591.36h40.96v40.96h-33.92l-7.040-14.4v-26.56zM491.52 591.36v-40.96h40.96v40.96h-40.96zM532.48 550.4v-40.96h40.96v40.96h-40.96zM573.44 509.44v-40.96h40.96v40.96h-40.96zM614.4 468.48v-40.96h40.96v40.96h-40.96zM614.4 427.52h-40.96v-40.96h40.96v40.96zM573.44 386.56h-40.96v-40.96h40.96v40.96zM573.44 345.6v-40.96h40.96v40.96h-40.96zM532.48 345.6h-40.96v-40.96h40.96v40.96zM491.52 345.6v40.96h-40.96v-40.96h40.96zM450.56 345.6h-40.96v-40.96h40.96v40.96zM450.56 386.56v40.96h-40.96v-40.96h40.96zM409.6 427.52v40.96h-40.96v-40.96h40.96zM409.6 468.48h40.96v40.96h-40.96v-40.96zM450.56 509.44h40.96v40.96h-40.96v-40.96zM491.52 509.44v-40.96h40.96v40.96h-40.96zM532.48 468.48v-40.96h40.96v40.96h-40.96zM532.48 427.52h-40.96v-40.96h40.96v40.96zM491.52 427.52v40.96h-40.96v-40.96h40.96zM512 794.56c-16.114 0.020-27.57-11.526-33.6-23.68 0-0.047-0.001-0.104-0.001-0.16s0-0.112 0.001-0.168l-81.6-165.432c-3.657-7.376-22.003-20.697-30.4-22.080-0.061-0.010-0.259 0.009-0.32 0l-182.080-26.24c-13.414-1.947-27.944-9.297-32.96-24.64s2.454-29.599 12.16-39.040l132.16-128.96c5.923-5.73 12.917-27.378 11.52-35.52l-31.040-182.080c-0.048 0-0.104 0.001-0.16 0.001s-0.112 0-0.169-0.001c-2.199-13.31 0.095-29.532 13.129-39.040s29.316-6.546 41.28-0.32l163.2 85.76c7.398 3.9 30.38 3.893 37.76 0l163.2-85.76c11.962-6.248 27.923-9.172 40.96 0.32s15.332 25.729 13.12 39.040l-31.36 182.080c-1.413 8.022 5.632 29.779 11.52 35.52l132.48 128.96c9.705 9.433 17.182 23.695 12.16 39.040s-19.556 22.687-32.96 24.64l-182.72 26.24c-8.124 1.198-26.388 14.62-30.080 22.080l-81.92 165.44h0.32c-5.925 12.209-17.486 23.984-33.6 24zM512 742.080l76.8-155.84c12.139-24.53 35.381-41.456 62.4-45.44l172.16-24.64-124.8-121.28c0-0.048-0.001-0.104-0.001-0.16s0-0.112 0.001-0.169c-19.61-19.113-28.452-46.19-23.68-73.271l29.44-171.2-153.6 80.64c-24.261 12.798-53.176 12.791-77.44 0l-153.6-80.64 29.44 171.2c4.624 26.96-4.2 54.447-24 73.6l-124.48 121.28 171.84 24.64c27.098 3.965 50.233 20.901 62.4 45.44l77.12 155.84z" />
<glyph unicode="&#xe617;" glyph-name="haf_ic_group_off" d="M512 832c-95.714 0-150.311-13.62-190.72-39.040-0.194-0.122-0.446-0.197-0.64-0.32-11.059-6.056-31.883-19.839-52.8-40.64-21.196-21.078-42.164-49.321-48.96-83.84-0.211-0.898-0.337-1.932-0.347-2.994-1.853-89.113 0.006-341.768 0.027-453.006 0.006-19.449 6.208-49.419 21.12-78.080s39.794-56.359 77.12-63.36c23.639-4.319 61.306-5.511 99.2-6.080s75.688-0.209 96-0.32c20.312 0.111 58.106-0.249 96 0.32s75.561 1.761 99.2 6.080c37.331 7.001 62.209 34.699 77.12 63.36s21.114 58.632 21.12 78.080c0.010 111.237 1.869 363.897 0 453.76-0.069 1.089-0.25 2.105-0.532 3.078-6.584 33.681-27.552 61.926-48.748 83.002-20.917 20.799-41.75 34.583-52.8 40.64-0.194 0.123-0.446 0.198-0.64 0.32-40.409 25.42-95.006 39.040-190.72 39.040zM512 803.52c93.49 0 141.685-12.921 176.32-34.88 1.357-1.443 3.001-2.599 4.844-3.377 3.65-1.524 24.067-14.76 42.836-33.423 18.603-18.499 35.621-42.462 40.96-68.48 1.799-89.366 0.010-340.128 0-451.2-0.004-12.634-5.426-40.624-17.92-64.64s-30.844-44.062-56.96-48.96c-19.072-3.484-57.301-5.198-94.72-5.76s-74.507 0.114-95.36 0c-20.853 0.114-57.941-0.562-95.36 0s-75.648 2.276-94.72 5.76c-26.111 4.898-44.465 24.944-56.96 48.96s-17.916 52.007-17.92 64.64c-0.020 111.070-1.809 361.837 0 451.2 5.339 26.018 22.357 49.98 40.96 68.48 18.768 18.664 39.195 31.908 47.040 36.16 1.443 1.357 2.599 3.001 3.377 4.844 31.898 17.755 80.093 30.676 173.583 30.676zM512.96 710.4c-77.653 0-127.995-11.982-160.64-30.4s-47.040-44.967-47.040-69.12v-172.48c0-24.421 16.461-43.83 35.84-56.64s42.709-20.48 64.32-20.48h218.24c22.3 0 43.621 9.592 60.16 23.36s29.12 32.501 29.12 53.76v172.48c0 21.621-10.497 48.704-40.96 67.84s-79.534 31.68-159.040 31.68zM512.96 681.92c76.47 0 120.668-12.544 144-27.2s27.52-30.174 27.52-43.84v-172.48c0-9.072-6.898-22.026-18.88-32s-28.104-16.64-41.92-16.64h-218.24c-14.496 0-34.079 6.055-48.64 15.68s-23.040 21.828-23.040 32.96v172.48c0 13.899 6.295 29.797 32.32 44.48s72.162 26.56 146.88 26.56zM369.28 314.56c-27.704 0-50.24-22.638-50.24-50.24 0-27.68 22.58-50.56 50.24-50.56 27.673 0 50.56 22.885 50.56 50.56 0 27.586-22.832 50.24-50.56 50.24zM659.84 314.56c-27.646 0-50.56-22.585-50.56-50.24 0-27.732 22.958-50.56 50.56-50.56 27.68 0 50.24 22.885 50.24 50.56 0 27.591-22.512 50.24-50.24 50.24zM369.28 286.080c12.72 0 22.080-9.164 22.080-21.76 0-12.773-9.326-22.080-22.080-22.080-12.726 0-21.76 9.312-21.76 22.080 0 12.6 9.077 21.76 21.76 21.76zM659.84 286.080c12.72 0 21.76-9.169 21.76-21.76 0-12.773-8.992-22.080-21.76-22.080-12.6 0-22.080 9.364-22.080 22.080 0 12.547 9.524 21.76 22.080 21.76z" />
<glyph unicode="&#xe618;" glyph-name="haf_ic_group_off_active" d="M512 839.040c-95.949 0-152.116-13.577-193.92-39.68-0.391-0.244-0.892-0.394-1.28-0.64-11.891-6.566-32.506-20.465-53.76-41.6-21.803-21.681-43.999-50.783-51.2-87.36-0.204-1.108-0.321-2.383-0.321-3.685 0-0.055 0-0.109 0.001-0.164-1.887-90.237-0.021-342.589 0-453.752 0.007-21.154 6.564-51.458 22.080-81.28s41.789-59.673 81.92-67.2c24.78-4.527 62.467-5.829 100.48-6.4s75.823-0.21 96-0.32c20.177 0.11 57.987-0.251 96 0.32s75.7 1.873 100.48 6.4c40.135 7.527 66.405 37.377 81.92 67.2s22.073 60.129 22.080 81.28c0.010 111.16 1.877 363.52 0 453.76 0 0.046 0.001 0.101 0.001 0.155 0 1.302-0.117 2.577-0.34 3.815-7.181 36.448-29.378 65.55-51.181 87.23-21.253 21.134-41.881 35.034-53.76 41.6-0.388 0.246-0.889 0.396-1.28 0.64-41.804 26.103-97.971 39.68-193.92 39.68zM512 796.48c92.819 0 139.304-12.885 172.48-33.92 2.105-1.166 4.561-2.005 7.168-2.373 1.198-2.112 21.071-15.088 39.232-33.147 17.992-17.89 34.103-40.979 39.040-64.96 1.766-89.661 0.010-339.086 0-449.92-0.003-10.93-5.39-38.586-17.28-61.44-11.84-22.759-28.678-40.656-51.84-45.12-0.096-0.018-0.223 0.018-0.32 0-18.007-3.255-55.948-4.882-93.12-5.44-37.3-0.56-74.372-0.205-95.36-0.32-20.988 0.115-58.060-0.24-95.36 0.32-37.172 0.558-75.113 2.185-93.12 5.44-0.097 0.018-0.223-0.018-0.32 0-23.156 4.464-39.998 22.36-51.84 45.12-11.891 22.855-17.277 50.512-17.28 61.44-0.020 110.831-1.776 360.263 0 449.92 4.938 23.981 21.049 47.069 39.040 64.96 18.161 18.060 38.047 31.047 45.12 34.88 2.433 1.131 4.51 2.606 6.275 4.391 28.181 17.284 74.665 30.169 167.485 30.169zM512.96 717.44c-78.387 0-129.859-11.688-164.16-31.040s-50.56-48.803-50.56-75.52v-172.48c0-27.744 18.456-49.113 39.040-62.72s44.77-21.44 68.16-21.44h218.24c24.422 0 46.961 10.244 64.64 24.96s31.68 34.894 31.68 59.2v172.48c0 23.61-11.913 53.664-44.16 73.92s-82.615 32.64-162.88 32.64zM512.96 674.88c75.711 0 118.611-12.704 140.16-26.24s24.32-26.083 24.32-37.76v-172.48c0-6.025-5.478-17.535-16.32-26.56s-25.745-15.040-37.44-15.040h-218.24c-12.716 0-31.444 5.891-44.8 14.72s-19.84 19.070-19.84 26.88v172.48c0 11.334 4.431 24.651 28.8 38.4s69.376 25.6 143.36 25.6zM369.28 321.6c-31.459 0-57.28-25.926-57.28-57.28 0-31.408 25.885-57.6 57.28-57.6 31.404 0 57.6 26.199 57.6 57.6 0 31.335-26.12 57.28-57.6 57.28zM659.84 321.6c-31.419 0-57.6-25.847-57.6-57.28 0-31.487 26.246-57.6 57.6-57.6 31.408 0 57.28 26.199 57.28 57.6 0 31.342-25.8 57.28-57.28 57.28zM369.28 279.040c8.968 0 14.72-5.873 14.72-14.72 0-9.047-5.696-15.040-14.72-15.040-8.992 0-14.72 6-14.72 15.040 0 8.849 5.793 14.72 14.72 14.72zM659.84 279.040c8.968 0 14.72-5.88 14.72-14.72 0-9.047-5.68-15.040-14.72-15.040-8.849 0-15.040 6.079-15.040 15.040 0 8.769 6.257 14.72 15.040 14.72z" />
<glyph unicode="&#xe619;" glyph-name="haf_ic_group_on" d="M621.76 832c-73.238 0-119.648-9.88-149.76-31.36-0.184-0.131-0.458-0.188-0.64-0.32-3.387-2.258-7.709-5.845-13.76-11.2-3.507-2.62-5.752-6.761-5.752-11.426 0-7.856 6.368-14.224 14.224-14.224 4.105 0 7.805 1.739 10.401 4.521 5.474 4.846 10.122 8.257 11.208 8.968 1.364 1.322 2.461 2.911 3.21 4.682 18.95 11.424 59.883 21.878 130.87 21.878 71.122 0 114.229-10.404 139.2-26.24 1.494-1.097 3.262-1.922 5.177-2.36 1.426-1.34 16.601-11.172 30.663-25.16 13.894-13.82 26.454-31.675 30.4-50.56 1.359-68.398 0.010-259.845 0-344.64-0.007-8.916-4.173-30.179-13.44-48s-22.623-32.012-41.28-35.52c-7.105-0.863-12.556-6.858-12.556-14.126 0-7.856 6.368-14.224 14.224-14.224 1.343 0 2.642 0.186 3.873 0.534 29.76 5.591 49.336 27.748 61.020 50.216s16.627 45.43 16.64 61.12c0.010 84.962 1.429 278.311 0 347.2-0.069 1.089-0.25 2.105-0.532 3.078-5.192 26.521-21.7 48.682-38.188 65.082-16.206 16.12-32.129 26.507-40.96 31.36-0.115 0.063-0.475 0.148-0.64 0.32-32.409 20.313-80.22 30.4-153.6 30.4zM505.6 744.96c-73.41 0-119.655-9.775-149.76-31.36-0.112-0.081-0.208-0.239-0.32-0.32-3.449-2.275-7.942-5.736-14.080-11.2-3.507-2.62-5.752-6.761-5.752-11.426 0-7.856 6.368-14.224 14.224-14.224 4.105 0 7.805 1.739 10.401 4.521 5.451 4.853 10.154 8.282 11.208 8.968 1.576 0.749 2.923 1.713 4.072 2.874 18.41 13.233 59.022 23.686 130.008 23.686 71.143 0 114.217-10.393 139.2-26.24 1.191-0.459 2.569-0.769 4.006-0.866 2.574-2.495 18.092-12.668 32.154-26.654s26.615-32.062 30.4-51.2c1.347-68.739 0.010-259.362 0-344-0.004-8.907-4.169-30.181-13.44-48s-22.619-32.003-41.28-35.52c-7.335-0.624-13.053-6.732-13.053-14.175 0-7.856 6.368-14.224 14.224-14.224 1.407 0 2.766 0.204 4.050 0.585 29.756 5.602 49.651 27.749 61.339 50.214s16.313 45.421 16.32 61.12c0.010 84.962 1.429 278.301 0 347.2 0.037 0.384 0.058 0.829 0.058 1.28s-0.021 0.896-0.062 1.336c-5.406 27.296-22.229 49.145-38.716 65.544-16.126 16.039-31.761 26.475-40.64 31.36-0.303 0.192-0.655 0.45-0.96 0.64-32.413 20.181-80.454 30.080-153.6 30.080zM389.12 657.92c-73.404 0-121.756-10.048-154.24-30.4-0.165-0.172-0.525-0.257-0.64-0.32-8.834-4.854-24.756-15.24-40.96-31.36-16.486-16.401-32.99-38.248-38.4-65.6-0.204-0.891-0.323-1.916-0.328-2.968-1.421-68.481-0.002-261.83 0.008-346.792 0.013-15.694 4.954-38.334 16.64-60.8s31.258-44.939 61.12-50.56c18.766-3.413 49.263-4.363 80-4.8s61.278 0.036 76.8 0c15.524 0.036 46.063-0.438 76.8 0s61.239 1.394 80 4.8c29.862 5.621 49.433 28.093 61.12 50.56s16.633 45.103 16.64 60.8c0.010 84.952 1.429 278.311 0 347.2-0.037 1.068-0.186 2.084-0.435 3.059-5.295 26.853-21.797 48.7-38.285 65.101-16.205 16.12-32.135 26.508-40.96 31.36-0.115 0.063-0.475 0.148-0.64 0.32-32.484 20.352-80.836 30.4-154.24 30.4zM389.12 629.44c71.143 0 114.92-10.441 139.84-26.24 1.373-0.746 2.973-1.285 4.669-1.525 1.611-1.856 17.108-12.006 31.171-25.995 13.895-13.822 26.45-31.679 30.4-50.56 1.359-68.398 0.010-259.855 0-344.64-0.004-8.909-4.171-29.86-13.44-47.68-9.22-17.726-22.449-31.914-40.96-35.52-0.098-0.019-0.222 0.018-0.32 0-13.98-2.502-44.725-4.050-74.88-4.48-30.283-0.432-60.516 0.036-76.48 0-15.966 0.036-46.197-0.431-76.48 0-30.154 0.429-60.905 1.974-74.88 4.48-0.098 0.018-0.222-0.019-0.32 0-18.512 3.606-31.741 17.796-40.96 35.52-9.268 17.818-13.433 38.757-13.44 47.68-0.010 84.795-1.359 276.242 0 344.64 3.951 18.882 16.506 36.738 30.4 50.56 14.062 13.989 29.561 24.141 35.2 27.2 1.576 0.749 2.923 1.713 4.072 2.874 21.488 13.244 65.265 23.686 136.408 23.686zM396.8 564.8c-59.722 0-99.056-8.84-124.8-23.36s-37.44-36.318-37.44-56v-131.84c0-20.228 13.418-35.898 28.8-46.080s33.825-16 51.2-16h166.72c18.059 0 35.139 7.578 48.32 18.56s23.36 25.832 23.36 43.52v131.84c0 17.466-8.825 39.56-32.96 54.72s-62.044 24.64-123.2 24.64zM396.8 536.32c58.12 0 91.155-9.479 108.16-20.16s19.52-21.213 19.52-30.72v-131.84c0-5.506-4.495-14.574-13.12-21.76s-20.512-12.16-30.080-12.16h-166.72c-10.242 0-24.951 4.524-35.52 11.52s-16 15.472-16 22.4v131.84c0 9.43 3.917 20.254 23.040 31.040s53.932 19.84 110.72 19.84zM287.040 262.4c-22.931 0-41.92-19.035-41.92-41.92 0-22.927 19.014-41.92 41.92-41.92 22.927 0 41.6 19.011 41.6 41.92 0 22.866-18.648 41.92-41.6 41.92zM508.8 262.4c-22.905 0-41.6-18.984-41.6-41.92 0-22.978 18.72-41.92 41.6-41.92 22.922 0 41.92 19.005 41.92 41.92 0 22.879-18.978 41.92-41.92 41.92zM287.040 233.92c7.993 0 13.12-5.525 13.12-13.44 0-8.037-5.102-13.44-13.12-13.44-7.957 0-13.44 5.422-13.44 13.44 0 7.896 5.508 13.44 13.44 13.44zM508.8 233.92c7.962 0 13.44-5.537 13.44-13.44 0-8.030-5.437-13.44-13.44-13.44-7.881 0-13.12 5.472-13.12 13.44 0 7.846 5.264 13.44 13.12 13.44z" />
<glyph unicode="&#xe61a;" glyph-name="haf_ic_group_on_active" d="M621.76 839.040c-73.671 0-121.447-9.534-153.6-32.32-0.092-0.060-0.227-0.259-0.32-0.32-0.186-0.133-0.455-0.186-0.64-0.32-3.857-2.591-8.286-6.109-14.4-11.52-4.89-3.943-7.992-9.933-7.992-16.648 0-11.783 9.552-21.336 21.336-21.336 5.759 0 10.984 2.281 14.823 5.99 5.254 4.65 10.051 7.985 10.554 8.314 2.085 2.001 3.76 4.411 4.898 7.104 15.518 7.83 55.030 18.496 125.342 18.496 70.449 0 112.25-10.624 135.36-25.28 2.105-1.166 4.561-2.005 7.168-2.373-1.015-0.91 14.256-10.803 27.712-24.187 13.279-13.208 24.612-29.861 28.16-46.72 1.333-68.53 0.010-258.726 0-343.36-0.006-7.223-3.817-27.82-12.48-44.48s-20.624-29.018-36.48-32c-9.941-1.948-17.338-10.59-17.338-20.96 0-11.785 9.553-21.338 21.338-21.338 1.415 0 2.797 0.138 4.135 0.4 32.526 6.12 53.817 30.428 66.105 54.058s17.266 46.936 17.28 64.32c0.010 84.886 1.437 277.935 0 347.2 0 0.046 0.001 0.101 0.001 0.155 0 1.302-0.117 2.577-0.34 3.814-5.791 29.283-23.206 52.307-40.301 69.31-16.594 16.505-32.622 26.673-42.24 32v0.32c-0.386 0.245-0.89 0.398-1.28 0.64-34.23 21.232-83.151 31.040-156.8 31.040zM505.6 752c-73.931 0-121.446-9.683-153.6-32.64-0.162-0.167-0.497-0.225-0.64-0.32-3.954-2.632-8.514-5.997-14.72-11.52-4.414-3.941-7.179-9.647-7.179-16 0-11.829 9.59-21.419 21.419-21.419 5.477 0 10.474 2.056 14.261 5.437 5.21 4.637 9.77 8.009 10.219 8.302 2.417 1.534 4.439 3.456 6.039 5.701 14.7 9.235 53.89 19.899 124.201 19.899 70.47 0 112.236-10.612 135.36-25.28 2.105-1.166 4.561-2.005 7.168-2.373-1.048-0.885 14.258-10.805 27.712-24.187 13.027-12.957 24.378-29.227 28.16-45.76 1.345-68.207 0.010-259.528 0-344.32-0.003-7.209-3.814-27.823-12.48-44.48s-20.298-29.010-36.16-32c-9.941-1.948-17.338-10.59-17.338-20.96 0-11.785 9.553-21.338 21.338-21.338 1.415 0 2.797 0.138 4.135 0.4 32.52 6.133 53.813 30.431 66.105 54.058s17.273 46.922 17.28 64.32c0.010 84.886 1.436 277.926 0 347.2-0.142 1.871-0.502 3.607-1.057 5.253-5.399 27.992-22.809 51.024-39.903 68.027-16.59 16.501-32.272 26.668-41.92 32v0.32c-0.383 0.243-0.894 0.4-1.28 0.64-34.237 21.245-83.443 31.040-157.12 31.040zM389.12 664.96c-73.677 0-123.103-9.75-157.44-31.040-0.387-0.24-0.896-0.397-1.28-0.64v-0.32c-9.623-5.33-25.648-15.495-42.24-32-17.092-17.004-34.504-40.035-40.32-69.44-0.204-1.108-0.321-2.383-0.321-3.685 0-0.055 0-0.109 0.001-0.164-1.437-69.256-0.010-262.306 0-347.192 0.014-17.387 4.99-40.692 17.28-64.32s33.579-47.932 66.24-54.080c19.985-3.635 50.429-4.361 81.28-4.8s61.389-0.285 76.8-0.32c15.413 0.035 45.95-0.12 76.8 0.32s61.303 1.173 81.28 4.8c32.662 6.148 53.949 30.451 66.24 54.080s17.273 46.925 17.28 64.32c0.010 84.876 1.437 277.935 0 347.2 0 0.046 0.001 0.101 0.001 0.155 0 1.302-0.117 2.577-0.34 3.814-5.797 29.277-23.207 52.307-40.301 69.31-16.592 16.505-32.629 26.673-42.24 32v0.32c-0.384 0.243-0.893 0.4-1.28 0.64-34.337 21.29-83.763 31.040-157.44 31.040zM389.12 622.4c70.47 0 112.971-10.68 136-25.28 2.105-1.166 4.561-2.005 7.168-2.373-1.018-0.911 14.255-10.801 27.712-24.187 13.282-13.212 24.61-29.862 28.16-46.72 1.327-68.693 0.010-258.814 0-343.36-0.003-7.212-3.815-27.822-12.48-44.48-8.613-16.557-20.439-28.922-36.16-32-0.095-0.018-0.224 0.018-0.32 0-12.781-2.285-43.88-3.732-73.92-4.16-30.17-0.43-60.085 0.037-76.16 0-16.077 0.037-45.991-0.429-76.16 0-30.040 0.427-61.146 1.872-73.92 4.16-0.096 0.018-0.224-0.018-0.32 0-15.722 3.078-27.549 15.444-36.16 32-8.664 16.656-12.474 37.25-12.48 44.48-0.010 84.556-1.327 274.667 0 343.36 3.55 16.859 14.879 33.508 28.16 46.72 13.456 13.386 28.733 23.28 33.6 25.92 2.432 1.131 4.51 2.606 6.275 4.391 18.034 10.849 60.535 21.529 131.005 21.529zM396.8 571.84c-60.456 0-100.601-8.866-128-24.32s-41.28-39.835-41.28-62.080v-131.84c0-23.553 15.415-41.182 32-52.16s35.882-17.28 55.040-17.28h166.72c20.182 0 38.48 8.229 52.8 20.16s25.92 28.547 25.92 49.28v131.84c0 19.455-10.243 44.521-36.16 60.8s-65.125 25.6-127.040 25.6zM396.8 529.28c57.361 0 89.098-9.639 104.32-19.2s16.32-17.123 16.32-24.64v-131.84c0-2.461-3.074-10.083-10.56-16.32s-18.154-10.24-25.6-10.24h-166.72c-8.459 0-21.994 4.041-31.36 10.24s-13.12 12.717-13.12 16.32v131.84c0 6.867 2.052 15.108 19.52 24.96s51.145 18.88 107.2 18.88zM287.040 269.44c-26.681 0-48.96-22.328-48.96-48.96 0-26.655 22.317-48.96 48.96-48.96 26.655 0 48.96 22.334 48.96 48.96 0 26.604-22.268 48.96-48.96 48.96zM508.8 269.44c-26.667 0-48.96-22.252-48.96-48.96 0-26.73 22.33-48.96 48.96-48.96 26.652 0 48.96 22.324 48.96 48.96 0 26.623-22.273 48.96-48.96 48.96zM287.040 226.88c4.253 0 6.080-2.222 6.080-6.4 0-4.319-1.789-6.4-6.080-6.4-4.22 0-6.4 2.109-6.4 6.4 0 4.149 2.218 6.4 6.4 6.4zM508.8 226.88c4.218 0 6.4-2.241 6.4-6.4 0-4.309-2.127-6.4-6.4-6.4-4.131 0-6.080 2.185-6.080 6.4 0 4.073 1.986 6.4 6.080 6.4z" />
<glyph unicode="&#xe61b;" glyph-name="haf_ic_info" d="M512 832c-211.961 0-384-172.070-384-384s172.039-384 384-384c211.931 0 384 172.069 384 384s-172.069 384-384 384zM512 803.52c196.563 0 355.52-158.957 355.52-355.52s-158.957-355.52-355.52-355.52c-196.595 0-355.52 158.956-355.52 355.52s158.925 355.52 355.52 355.52zM511.68 635.84c-20.125 0-36.8-15.932-36.8-36.16 0-19.784 16.673-35.84 36.8-35.84 19.999 0 37.44 15.519 37.44 35.84 0 20.742-17.437 36.16-37.44 36.16zM511.68 521.28c-4.949 0-12.016-1.299-18.24-6.080s-10.88-13.137-10.88-25.6v-197.76c0-12.468 4.656-21.137 10.88-25.92s13.291-5.76 18.24-5.76c4.949 0 12.023 0.976 18.24 5.76s10.88 13.454 10.88 25.92v197.76c0 12.461-4.664 20.817-10.88 25.6s-13.291 6.080-18.24 6.080z" />
<glyph unicode="&#xe61c;" glyph-name="haf_ic_info_familiar" d="M512 867.84c-231.864 0-419.84-187.965-419.84-419.84 0-231.864 187.976-419.84 419.84-419.84s419.84 187.965 419.84 419.84v5.76c-3.123 229.622-190.198 414.080-419.84 414.080zM463.36 743.68c3.376 0.174 6.909 0 10.24 0 45.896 0.451 109.23-15.424 122.88-89.92 1.157-4.936 3.84-17.495 3.84-21.12v-64.64c3.779-8.714 8.64-23.636 8.64-31.040 0-13.65-7.378-27.372-18.56-44.8-7.404-8.714-8.794-23.357-15.040-35.84-4.936-11.182-15.946-22.51-23.36-36.16-2.468-2.468 0-7.299 0-9.92 0-23.532 22.080-22.51 22.080-36.16 0-7.404-6.036-13.44-13.44-13.44-11.182 0-34.88 26.053-34.88 33.6v33.28c9.871 17.428 23.493 32.492 31.040 49.92 3.779 9.871 4.954 21.046 11.2 29.76 1.157 3.635 7.452 6.295 9.92 9.92 3.779 4.936 7.36 14.669 7.36 17.28 0 7.404-11.2 22.492-11.2 24.96v78.080c-6.246 68.26-55.895 80.64-100.48 80.64-62.013 0-100.48-29.962-100.48-87.040v-70.72c-6.246-11.182-9.92-14.881-9.92-25.92 0-7.404 0.154-8.689 6.4-18.56 2.468-3.779 8.443-4.831 9.6-9.92 8.714-23.532 18.616-47.26 39.68-74.56 3.779-4.936 2.56-17.372 2.56-19.84 0-10.025 1.293-20.137-4.8-26.24-53.443-53.443-145.216-80.768-194.88-105.6v-34.56c-2.468-6.246-9.981-9.92-13.76-9.92-4.936 0-7.421 3.735-11.2 7.36v42.24c3.779 21.053 27.279 26.084 42.24 32.32 52.132 23.532 104.348 36.902 156.48 80.32v22.4c-19.896 23.532-28.529 48.356-38.4 70.72-2.468 6.246-8.732 10.094-11.2 15.040-3.635 8.714-7.68 23.636-7.68 31.040 0 10.025 3.827 22.449 9.92 32.32v74.24c10.483 74.477 64.557 97.876 115.2 100.48zM700.48 405.44c69.56 0.143 126.71-59.648 126.72-125.44 0-70.717-60.938-127.68-126.72-127.68-44.728 0-99.267 29.642-120.32 86.72-2.468 8.714-6.080 26.012-6.080 28.48v22.4c9.882 75.663 69.322 115.52 126.4 115.52zM699.2 377.92c-43.418 0-89.206-25.894-97.92-85.44v-26.24c0-2.468 2.332-14.996 4.8-22.4 16.261-47.053 59.686-64.32 94.4-64.32 55.91 0 99.51 43.279 99.52 99.2 0 57.078-39.811 99.343-100.8 99.2zM749.44 323.84c1.253-0.019 2.988-0.32 4.8-0.32 8.561-0.010 12.16-5.076 12.16-12.48 0-8.714-37.025-43.331-47.040-55.68-9.871-10.025-21.015-22.449-31.040-32.32-2.468-2.468-4.892-2.56-7.36-2.56-11.182 0-36.116 31.109-43.52 39.68-2.468 2.468-2.56 6.172-2.56 8.64 0 8.714 4.923 13.76 12.48 13.76 11.182 0 23.585-19.889 33.6-29.76 21.053 22.364 42.245 47.076 65.92 69.44 0.579 1.234 1.307 1.619 2.56 1.6z" />
<glyph unicode="&#xe61d;" glyph-name="haf_ic_journey" d="M512 811.84c-39.387 0-78.799-7.238-115.84-21.44l-14.4-5.44-13.12-5.12v-89.6h-208.32c-52.814 0-96-43.186-96-96v-407.68c0-52.814 43.186-96 96-96h703.36c52.814 0 95.988 43.188 96 96v407.68c0 52.814-43.186 96-96 96h-208.32v89.6l-13.12 5.12-14.4 5.44c-37.041 14.202-76.453 21.44-115.84 21.44zM512 770.88c34.454 0 68.907-6.209 101.12-18.56l1.28-0.64v-61.44h-204.8v61.44l1.28 0.64c32.213 12.351 66.666 18.56 101.12 18.56zM160.32 662.080h75.2v-543.040h-75.2c-37.298 0-67.52 30.222-67.52 67.52v407.68c0 37.298 30.222 67.84 67.52 67.84zM276.48 662.080h471.040v-543.040h-471.040v543.040zM788.48 662.080h75.2c37.298 0 67.52-30.542 67.52-67.84v-407.68c-0.008-37.3-30.222-67.52-67.52-67.52h-75.2v543.040z" />
<glyph unicode="&#xe61e;" glyph-name="haf_ic_journey_active" d="M512 811.84c-39.387 0-78.799-7.238-115.84-21.44l-14.4-5.44-13.12-5.12v-89.6h-208.32c-52.814 0-96-43.186-96-96v-407.68c0-52.814 43.186-96 96-96h703.36c52.814 0 95.988 43.188 96 96v407.68c0 52.814-43.186 96-96 96h-208.32v89.6l-13.12 5.12-14.4 5.44c-37.041 14.202-76.453 21.44-115.84 21.44zM512 770.88c34.454 0 68.907-6.209 101.12-18.56l1.28-0.64v-61.44h-204.8v61.44l1.28 0.64c32.213 12.351 66.666 18.56 101.12 18.56zM160.32 662.080h3.52v-29.76h40.96v29.76h30.72v-29.76h-30.72v-40.96h30.72v-40.96h-30.72v-40.96h30.72v-40.96h-30.72v-40.96h30.72v-40.96h-30.72v-40.96h30.72v-40.96h-30.72v-40.96h30.72v-40.96h-30.72v-40.96h30.72v-40.96h-30.72v-21.76h-40.96v21.76h-40.96v-10.56c-4.478 2.982-8.522 6.623-12.16 10.56h12.16v40.96h-29.76c0.523-7.558 2.35-14.8 5.12-21.44-2.833 6.7-4.594 13.84-5.12 21.44-0.108 1.563-0.32 3.209-0.32 4.8v36.16h30.080v40.96h-30.080v40.96h30.080v40.96h-30.080v40.96h30.080v40.96h-30.080v40.96h30.080v40.96h-30.080v40.96h30.080v40.96h-30.080v2.88c0 14.143 4.411 27.177 11.84 38.080 2.367 3.474 5.048 6.949 8 9.92-2.925-3.050-5.631-6.443-8-9.92h18.24v18.56c10.702 7.181 23.615 11.2 37.44 11.2zM122.88 632.32v-40.96h40.96v40.96h-40.96zM163.84 591.36v-40.96h40.96v40.96h-40.96zM163.84 550.4h-40.96v-40.96h40.96v40.96zM163.84 509.44v-40.96h40.96v40.96h-40.96zM163.84 468.48h-40.96v-40.96h40.96v40.96zM163.84 427.52v-40.96h40.96v40.96h-40.96zM163.84 386.56h-40.96v-40.96h40.96v40.96zM163.84 345.6v-40.96h40.96v40.96h-40.96zM163.84 304.64h-40.96v-40.96h40.96v40.96zM163.84 263.68v-40.96h40.96v40.96h-40.96zM163.84 222.72h-40.96v-40.96h40.96v40.96zM163.84 181.76v-40.96h40.96v40.96h-40.96zM286.72 662.080h40.96v-29.76h40.96v29.76h40.96v-29.76h40.96v29.76h40.96v-29.76h40.96v29.76h40.96v-29.76h40.96v29.76h40.96v-29.76h40.96v29.76h40.96v-29.76h10.24v-40.96h-10.24v-40.96h10.24v-40.96h-10.24v-40.96h10.24v-40.96h-10.24v-40.96h10.24v-40.96h-10.24v-40.96h10.24v-40.96h-10.24v-40.96h10.24v-40.96h-10.24v-40.96h10.24v-21.76h-10.24v21.76h-40.96v-21.76h-40.96v21.76h-40.96v-21.76h-40.96v21.76h-40.96v-21.76h-40.96v21.76h-40.96v-21.76h-40.96v21.76h-40.96v-21.76h-40.96v21.76h-40.96v-21.76h-10.24v21.76h10.24v40.96h-10.24v40.96h10.24v40.96h-10.24v40.96h10.24v40.96h-10.24v40.96h10.24v40.96h-10.24v40.96h10.24v40.96h-10.24v40.96h10.24v40.96h-10.24v40.96h10.24v29.76zM286.72 632.32v-40.96h40.96v40.96h-40.96zM327.68 591.36v-40.96h40.96v40.96h-40.96zM368.64 591.36h40.96v40.96h-40.96v-40.96zM409.6 591.36v-40.96h40.96v40.96h-40.96zM450.56 591.36h40.96v40.96h-40.96v-40.96zM491.52 591.36v-40.96h40.96v40.96h-40.96zM532.48 591.36h40.96v40.96h-40.96v-40.96zM573.44 591.36v-40.96h40.96v40.96h-40.96zM614.4 591.36h40.96v40.96h-40.96v-40.96zM655.36 591.36v-40.96h40.96v40.96h-40.96zM696.32 591.36h40.96v40.96h-40.96v-40.96zM696.32 550.4v-40.96h40.96v40.96h-40.96zM696.32 509.44h-40.96v-40.96h40.96v40.96zM696.32 468.48v-40.96h40.96v40.96h-40.96zM696.32 427.52h-40.96v-40.96h40.96v40.96zM696.32 386.56v-40.96h40.96v40.96h-40.96zM696.32 345.6h-40.96v-40.96h40.96v40.96zM696.32 304.64v-40.96h40.96v40.96h-40.96zM696.32 263.68h-40.96v-40.96h40.96v40.96zM696.32 222.72v-40.96h40.96v40.96h-40.96zM696.32 181.76h-40.96v-40.96h40.96v40.96zM655.36 181.76v40.96h-40.96v-40.96h40.96zM614.4 181.76h-40.96v-40.96h40.96v40.96zM573.44 181.76v40.96h-40.96v-40.96h40.96zM532.48 181.76h-40.96v-40.96h40.96v40.96zM491.52 181.76v40.96h-40.96v-40.96h40.96zM450.56 181.76h-40.96v-40.96h40.96v40.96zM409.6 181.76v40.96h-40.96v-40.96h40.96zM368.64 181.76h-40.96v-40.96h40.96v40.96zM327.68 181.76v40.96h-40.96v-40.96h40.96zM327.68 222.72h40.96v40.96h-40.96v-40.96zM327.68 263.68v40.96h-40.96v-40.96h40.96zM327.68 304.64h40.96v40.96h-40.96v-40.96zM327.68 345.6v40.96h-40.96v-40.96h40.96zM327.68 386.56h40.96v40.96h-40.96v-40.96zM327.68 427.52v40.96h-40.96v-40.96h40.96zM327.68 468.48h40.96v40.96h-40.96v-40.96zM327.68 509.44v40.96h-40.96v-40.96h40.96zM368.64 509.44h40.96v40.96h-40.96v-40.96zM409.6 509.44v-40.96h40.96v40.96h-40.96zM450.56 509.44h40.96v40.96h-40.96v-40.96zM491.52 509.44v-40.96h40.96v40.96h-40.96zM532.48 509.44h40.96v40.96h-40.96v-40.96zM573.44 509.44v-40.96h40.96v40.96h-40.96zM614.4 509.44h40.96v40.96h-40.96v-40.96zM614.4 468.48v-40.96h40.96v40.96h-40.96zM614.4 427.52h-40.96v-40.96h40.96v40.96zM614.4 386.56v-40.96h40.96v40.96h-40.96zM614.4 345.6h-40.96v-40.96h40.96v40.96zM614.4 304.64v-40.96h40.96v40.96h-40.96zM614.4 263.68h-40.96v-40.96h40.96v40.96zM573.44 263.68v40.96h-40.96v-40.96h40.96zM532.48 263.68h-40.96v-40.96h40.96v40.96zM491.52 263.68v40.96h-40.96v-40.96h40.96zM450.56 263.68h-40.96v-40.96h40.96v40.96zM409.6 263.68v40.96h-40.96v-40.96h40.96zM409.6 304.64h40.96v40.96h-40.96v-40.96zM409.6 345.6v40.96h-40.96v-40.96h40.96zM409.6 386.56h40.96v40.96h-40.96v-40.96zM409.6 427.52v40.96h-40.96v-40.96h40.96zM450.56 427.52h40.96v40.96h-40.96v-40.96zM491.52 427.52v-40.96h40.96v40.96h-40.96zM532.48 427.52h40.96v40.96h-40.96v-40.96zM532.48 386.56v-40.96h40.96v40.96h-40.96zM532.48 345.6h-40.96v-40.96h40.96v40.96zM491.52 345.6v40.96h-40.96v-40.96h40.96zM788.48 662.080h30.72v-29.76h40.96v29.76h3.52c13.825 0 26.738-4.019 37.44-11.2v-18.56h18.24c-2.369 3.477-5.075 6.87-8 9.92 2.952-2.971 5.633-6.446 8-9.92 7.429-10.903 11.84-23.937 11.84-38.080v-2.88h-30.080v-40.96h30.080v-40.96h-30.080v-40.96h30.080v-40.96h-30.080v-40.96h30.080v-40.96h-30.080v-40.96h30.080v-40.96h-30.080v-40.96h30.080v-36.16c0-1.591-0.212-3.237-0.32-4.8-0.527-7.6-2.286-14.74-5.12-21.44 2.769 6.64 4.596 13.882 5.12 21.44h-29.76v-40.96h12.16c-3.638-3.937-7.683-7.578-12.16-10.56v10.56h-40.96v-21.76h-40.96v21.76h-30.72v40.96h30.72v40.96h-30.72v40.96h30.72v40.96h-30.72v40.96h30.72v40.96h-30.72v40.96h30.72v40.96h-30.72v40.96h30.72v40.96h-30.72v40.96h30.72v40.96h-30.72v29.76zM819.2 591.36v-40.96h40.96v40.96h-40.96zM860.16 591.36h40.96v40.96h-40.96v-40.96zM860.16 550.4v-40.96h40.96v40.96h-40.96zM860.16 509.44h-40.96v-40.96h40.96v40.96zM860.16 468.48v-40.96h40.96v40.96h-40.96zM860.16 427.52h-40.96v-40.96h40.96v40.96zM860.16 386.56v-40.96h40.96v40.96h-40.96zM860.16 345.6h-40.96v-40.96h40.96v40.96zM860.16 304.64v-40.96h40.96v40.96h-40.96zM860.16 263.68h-40.96v-40.96h40.96v40.96zM860.16 222.72v-40.96h40.96v40.96h-40.96zM860.16 181.76h-40.96v-40.96h40.96v40.96zM98.88 158.72c1.438-3.211 3.21-6.359 5.12-9.28-1.946 2.948-3.648 6.033-5.12 9.28zM925.12 158.72c-1.472-3.247-3.174-6.332-5.12-9.28 1.91 2.921 3.683 6.069 5.12 9.28zM104.32 148.8c1.721-2.571 3.699-4.73 5.76-7.040-2.035 2.276-4.045 4.502-5.76 7.040zM919.68 148.8c-1.715-2.538-3.725-4.764-5.76-7.040 2.061 2.31 4.039 4.469 5.76 7.040z" />
<glyph unicode="&#xe61f;" glyph-name="haf_ic_loc_dest" d="M611.2 704.32c-81.632 0-154.413-38.429-201.28-97.92-1.898-2.398-3.045-5.466-3.045-8.802 0-7.867 6.377-14.244 14.244-14.244 4.532 0 8.57 2.117 11.179 5.416 41.732 52.974 106.177 87.070 178.903 87.070 125.954 0 227.84-101.845 227.84-227.84 0-126.016-101.885-227.84-227.84-227.84-76.545 0-143.547 37.615-184.96 95.36-2.632 3.665-6.882 6.023-11.682 6.023-7.92 0-14.34-6.42-14.34-14.34 0-3.122 0.998-6.011 2.692-8.366 46.479-64.806 122.389-107.157 208.291-107.157 141.329 0 256.32 114.929 256.32 256.32 0 141.372-114.989 256.32-256.32 256.32zM329.6 573.44c-7.41-0.542-13.216-6.687-13.216-14.188 0-4.128 1.758-7.845 4.567-10.443l87.049-86.729h-237.44c-0.606 0.091-1.306 0.144-2.017 0.144-7.856 0-14.224-6.368-14.224-14.224s6.368-14.224 14.224-14.224c0.712 0 1.411 0.052 2.095 0.153l237.363-0.009-87.040-86.72c-2.581-2.58-4.177-6.144-4.177-10.082 0-7.873 6.382-14.255 14.255-14.255 3.937 0 7.502 1.596 10.082 4.177l111.040 111.040c2.010 1.897 3.464 4.363 4.104 7.141-0.383-1.241-0.082 0.397-0.082 2.107 0 0.802-0.066 1.589-0.194 2.356-0.13 1.727-0.589 3.397-1.311 4.919-0.412 1.164-1.553 2.873-2.992 4.279 0.621-0.864-1.2 0.476-3.268 1.341 2.12-0.503 0.063 0.873-2.265 1.663l-105.033 107.075c-2.586 2.746-6.24 4.462-10.295 4.48-0.136 0.009-0.359 0.014-0.585 0.014s-0.449-0.005-0.672-0.016zM611.2 518.72c-38.921 0-70.72-31.799-70.72-70.72s31.799-70.72 70.72-70.72c38.921 0 70.72 31.799 70.72 70.72s-31.799 70.72-70.72 70.72z" />
<glyph unicode="&#xe620;" glyph-name="haf_ic_loc_start" d="M412.8 704.32c-141.331 0-256.32-114.948-256.32-256.32s114.99-256.32 256.32-256.32c81.626 0 154.411 38.351 201.28 97.92 1.898 2.398 3.045 5.466 3.045 8.802 0 7.867-6.377 14.244-14.244 14.244-4.532 0-8.57-2.117-11.179-5.416-41.73-53.039-106.171-87.070-178.903-87.070-125.954 0-227.84 101.845-227.84 227.84s101.886 227.84 227.84 227.84c76.545 0 143.547-37.615 184.96-95.36 2.632-3.665 6.882-6.023 11.682-6.023 7.92 0 14.34 6.42 14.34 14.34 0 3.122-0.998 6.011-2.692 8.366-46.479 64.806-122.389 107.157-208.291 107.157zM741.12 573.44c-7.41-0.542-13.216-6.687-13.216-14.188 0-4.128 1.758-7.845 4.567-10.443l86.729-86.729h-237.12c-0.606 0.091-1.306 0.144-2.017 0.144-7.856 0-14.224-6.368-14.224-14.224s6.368-14.224 14.224-14.224c0.712 0 1.411 0.052 2.095 0.153l237.043-0.009-86.72-86.72c-2.006-2.433-3.222-5.582-3.222-9.016 0-7.856 6.368-14.224 14.224-14.224 3.353 0 6.435 1.16 8.867 3.101l111.011 111.018c2.010 1.897 3.464 4.363 4.104 7.141-0.236-1.069 0.153 0.78 0.153 2.72 0 0.585-0.035 1.161-0.104 1.727-0.299 1.98-0.999 3.818-2.016 5.436-0.031 0.662-1.172 2.371-2.611 3.777 0.621-0.864-1.2 0.476-3.268 1.341 2.12-0.503 0.063 0.873-2.265 1.663l-105.033 107.075c-2.549 2.71-6.136 4.417-10.123 4.485 0.012 0.004-0.212 0.009-0.437 0.009s-0.449-0.005-0.672-0.016zM412.8 518.72c-38.921 0-70.72-31.799-70.72-70.72s31.799-70.72 70.72-70.72c38.921 0 70.72 31.799 70.72 70.72s-31.799 70.72-70.72 70.72z" />
<glyph unicode="&#xe621;" glyph-name="haf_ic_loc_via" d="M455.36 702.4c-90.96 0-170.767-47.779-215.68-119.68-1.357-2.134-2.163-4.734-2.163-7.522 0-7.821 6.34-14.162 14.162-14.162 5.035 0 9.456 2.627 11.967 6.586 39.95 63.959 110.642 106.618 191.714 106.618 81.081 0 152.072-42.664 192-106.56 2.545-4.016 6.967-6.644 12.001-6.644 7.821 0 14.162 6.34 14.162 14.162 0 2.788-0.806 5.388-2.197 7.58-44.887 71.829-124.994 119.622-215.966 119.622zM767.68 572.48c-7.313-0.593-13.023-6.674-13.023-14.089 0-4.022 1.68-7.652 4.377-10.226l86.406-86.085h-234.56c-0.365 0.034-0.789 0.053-1.218 0.053-7.805 0-14.133-6.327-14.133-14.133s6.327-14.133 14.133-14.133c0.429 0 0.853 0.019 1.272 0.057l234.506-0.004-86.4-86.080c-2.581-2.58-4.177-6.144-4.177-10.082 0-7.873 6.382-14.255 14.255-14.255 3.937 0 7.502 1.596 10.082 4.177l110.080 110.4c1.517 1.382 2.726 3.074 3.528 4.98-1.28-2.498-0.298-0.672 0.252 1.332-1.023-2.616-0.424-0.913-0.17 0.9-0.213-2.237 0.386-0.534 0.64 1.28-0.213-2.237 0.386-0.534 0.64 1.28-0.723-2.642-0.512-1.43-0.464-0.175-0.22-1.806-0.193-1.305-0.193-0.798s-0.027 1.008-0.079 1.501c0 1.438-0.237 2.88-0.673 4.233-0.224 1.15-0.621 2.288-1.148 3.351-0.148-0.144-1.575 1.573-3.318 2.895 1.203-1.024-0.49 0.185-2.395 0.988 2.546-0.789 0.674 0.61-1.463 1.499l-105.238 106.973c-2.566 2.613-6.137 4.233-10.086 4.233-0.505 0-1.004-0.026-1.495-0.078zM455.36 518.72c-38.855 0-70.4-31.865-70.4-70.72s31.545-70.72 70.4-70.72c38.855 0 70.72 31.865 70.72 70.72s-31.865 70.72-70.72 70.72zM143.040 462.080c-7.031-0.886-12.415-6.828-12.415-14.028 0-7.764 6.261-14.066 14.009-14.132h155.526c0.365-0.034 0.789-0.053 1.218-0.053 7.805 0 14.133 6.327 14.133 14.133s-6.327 14.133-14.133 14.133c-0.429 0-0.853-0.019-1.272-0.057l-155.466 0.004c-0.239 0.014-0.519 0.023-0.8 0.023s-0.561-0.008-0.838-0.024zM250.56 335.36c-1.187-0.17-2.255-0.46-3.267-0.863-5.002-0.675-9.991-6.44-9.991-13.371 0-2.924 0.888-5.641 2.41-7.896 44.91-71.856 124.699-119.63 215.648-119.63 90.972 0 171.070 47.785 216 119.68 1.357 2.134 2.163 4.734 2.163 7.522 0 7.821-6.34 14.162-14.162 14.162-5.035 0-9.456-2.627-11.967-6.586-39.973-63.966-110.953-106.618-192.034-106.618-81.063 0-151.732 42.643-191.68 106.56-2.489 4.255-7.036 7.067-12.24 7.067-0.31 0-0.617-0.010-0.922-0.030z" />
<glyph unicode="&#xe622;" glyph-name="haf_ic_location" d="M512 803.52c-143.644 0-260.48-116.599-260.48-260.16 0-8.587 0.901-17.129 1.6-25.28-0.001-0.048-0.001-0.104-0.001-0.16s0-0.112 0.001-0.169c0.083-0.778-0.048-1.444 0-2.231-0.002-0.095-0.004-0.207-0.004-0.32s0.001-0.225 0.004-0.337c10.244-103.236 73.011-206.916 132.48-285.743s116.48-132.8 116.48-132.8c2.56-2.493 6.060-4.030 9.92-4.030s7.36 1.537 9.923 4.033c159.539 151.437 217.482 287.609 238.397 368.957 0.050 0.194 0.271 0.447 0.32 0.64h-0.32c6.113 19.481 9.859 39.667 11.2 60.48 0.892 10.73 0.64 16.96 0.64 16.96h0.32c0 143.56-116.836 260.16-260.48 260.16zM512 775.040c128.269 0 232-103.491 232-231.68-0.001-0.048-0.001-0.104-0.001-0.16s0-0.112 0.001-0.169c0 0.009-0.153-4.683-0.96-14.391-0.001-0.048-0.001-0.104-0.001-0.16s0-0.112 0.001-0.169c-1.226-19.024-4.156-37.21-9.6-54.391-0.459-1.191-0.769-2.569-0.866-4.006-18.547-71.608-72.361-198.714-220.574-342.874-12.434 12.132-53.812 53.259-103.68 119.36-57.836 76.663-117.241 177.319-126.72 270.72-0.012 0.202 0.013 0.44 0 0.64-0.062 0.907-0.231 2.006-0.32 2.88-0.009 0.11 0.009 0.21 0 0.32-0.659 7.726-1.28 15.238-1.28 22.4 0 128.188 103.731 231.68 232 231.68zM512 622.080c-39.062 0-71.040-31.952-71.040-71.040 0-39.135 31.978-71.36 71.040-71.36 39.070 0 71.027 32.225 71.040 71.36 0 39.095-31.97 71.040-71.040 71.040z" />
<glyph unicode="&#xe623;" glyph-name="haf_ic_map" d="M676.48 832c-1.192-0.171-2.266-0.463-3.282-0.868-0.175-0.223-1.758-1.304-3.078-2.646l-249-107.526-252.8 89.92c-1.388 0.497-2.988 0.784-4.656 0.784-7.856 0-14.224-6.368-14.224-14.224v-596.16c0-0.011 0-0.025 0-0.038 0-5.838 3.517-10.855 8.548-13.046l258.332-108.516c0.095-0.002 0.207-0.004 0.32-0.004s0.225 0.001 0.337 0.004c1.357-0.746 2.956-1.285 4.652-1.525-2.656 0.459-1.056-0.080 0.64-0.32-2.656 0.459-1.056-0.080 0.64-0.32-3.933 1.202-3.821 1.201-3.709 1.201s0.225 0.001 0.337 0.004c0.126-0.005 0.295-0.008 0.463-0.008s0.337 0.003 0.504 0.009c0.071-0.003 0.183-0.004 0.296-0.004s0.225 0.001 0.337 0.004c0.079-0.003 0.191-0.004 0.303-0.004s0.225 0.001 0.337 0.004c0.079-0.003 0.191-0.004 0.303-0.004s0.225 0.001 0.337 0.004c1.478 0.082 2.877 0.383 4.185 0.87-0.586-0.232-0.474-0.234-0.361-0.234s0.225 0.001 0.337 0.004c1.56 0.749 2.907 1.713 4.055 2.874l245.848 103.046 176-118.72c2.211-1.484 4.932-2.369 7.86-2.369 7.738 0 14.033 6.179 14.219 13.872v600.657c0 0.004 0 0.008 0 0.012 0 4.527-2.115 8.56-5.41 11.165l-179.87 137.303c-1.6 1.687-3.6 2.978-5.849 3.723 2.236-1.058 0.636-0.519-1.060-0.279 2.672 0.239 1.027 1.394-0.816 2.172 2.741-1.895 1.028-1.293-0.796-1.038 2.347-0.313 0.747 0.226-0.949 0.465 2.63-0.528 1.003-0.064-0.712 0.095 3.093-0.659 3.037-0.659 2.981-0.659s-0.112 0-0.169-0.001c-1.182 0.459-2.561 0.769-3.998 0.866 2.999-0.545 2.943-0.545 2.886-0.545s-0.112 0-0.169-0.001c-0.135 0.005-0.303 0.008-0.471 0.008s-0.337-0.003-0.504-0.009c-0.071 0.003-0.183 0.004-0.296 0.004s-0.225-0.001-0.337-0.004c-0.126 0.005-0.295 0.008-0.463 0.008s-0.337-0.003-0.504-0.009c-0.023 0.001-0.079 0.002-0.136 0.002s-0.112 0-0.169-0.001c-0.182 0.009-0.406 0.014-0.631 0.014s-0.449-0.005-0.672-0.016zM664.32 795.84l-0.64-584.96-227.84-96.64v581.76l85.44 37.44 143.040 62.4zM692.8 788.8l153.28-117.12v-566.72l-153.92 104 0.64 579.84zM177.92 777.28l229.76-81.92v-581.44l-229.76 96.64v566.72z" />
<glyph unicode="&#xe624;" glyph-name="haf_ic_mytrain" d="M482.88 664.32c-7.326-0.678-13.017-6.794-13.017-14.24 0-7.896 6.401-14.297 14.297-14.297 0.451 0 0.896 0.021 1.336 0.062l96.264-0.004c26.958 0 49.132-3.55 66.56-10.24 1.322-1.364 2.911-2.461 4.682-3.21 14.131-3.634 30.359-13.902 44.918-28.47 1.373-0.746 2.973-1.285 4.669-1.525l121.731-111.755c1.494-1.097 3.262-1.922 5.177-2.36 23.296-19.813 36.879-47.996 38.023-86.92 0.003-0.112-0.003-0.208 0-0.32v-71.040c0-19.574-5.112-33.4-15.36-44.16-9.933-10.39-23.71-15.68-44.48-15.68h-322.24c-7.865 0-14.24-6.375-14.24-14.24s6.375-14.24 14.24-14.24h322.24c26.232 0 49.068 8.017 64.96 24.64 15.578 16.356 23.36 38.608 23.36 63.68v71.36c0.002 0.095 0.004 0.207 0.004 0.32s-0.001 0.225-0.004 0.337c-1.248 45.386-19.212 83.28-52.48 109.743l-0.96 0.64-124.48 111.68c-0.216 0.216-0.423 0.425-0.64 0.64-17.131 16.963-36.783 29.598-58.88 37.44-0.091 0.035-0.228-0.035-0.32 0-21.671 8.269-47.14 12.16-76.48 12.16h-96.32c-0.191 0.009-0.415 0.014-0.64 0.014s-0.449-0.005-0.672-0.016c-0.16 0.010-0.383 0.016-0.608 0.016s-0.449-0.005-0.672-0.016zM483.84 587.84c-7.326-0.678-13.017-6.794-13.017-14.24 0-7.896 6.401-14.297 14.297-14.297 0.451 0 0.896 0.021 1.336 0.062l76.424-0.004c2.141-0.258 3.143-0.583 3.2-0.64s0.711-1.242 0.96-3.52c0.043-0.39-0.024-0.132 0-0.64v-239.040h-80.96c-7.865 0-14.24-6.375-14.24-14.24s6.375-14.24 14.24-14.24h95.36c7.794 0.081 14.081 6.418 14.081 14.223 0 0.062 0 0.124-0.001 0.186v253.751c0.002 0.095 0.004 0.207 0.004 0.32s-0.001 0.225-0.004 0.337c-0.389 8.259-3.174 16.595-9.28 22.703s-14.52 8.869-22.72 9.28c-0.095 0.002-0.207 0.004-0.32 0.004s-0.225-0.001-0.337-0.004h-76.463c-0.191 0.009-0.415 0.014-0.64 0.014s-0.449-0.005-0.672-0.016c-0.16 0.010-0.383 0.016-0.608 0.016s-0.449-0.005-0.672-0.016zM640.96 587.84c-8.204-0.418-16.619-3.174-22.72-9.28s-8.87-14.467-9.28-22.72c-0.002-0.095-0.004-0.207-0.004-0.32s0.001-0.225 0.004-0.337v-78.703c-0.005-0.143-0.008-0.311-0.008-0.48s0.003-0.337 0.009-0.504c0.41-8.222 3.171-16.598 9.279-22.696s14.515-8.876 22.72-9.28c0.095-0.002 0.207-0.004 0.32-0.004s0.225 0.001 0.337 0.004h120.623c13.784 0 27.492 9.718 32 22.72 0.264 0.971 0.428 2.091 0.455 3.245 2.472 9.526-1.417 22.621-10.055 30.355l-0.64 0.64-76.48 71.36c-0.208 0.214-0.429 0.43-0.64 0.64-9.821 9.742-23.566 14.663-38.72 15.36-0.095 0.002-0.207 0.004-0.32 0.004s-0.225-0.001-0.337-0.004h-25.903c-0.095 0.002-0.207 0.004-0.32 0.004s-0.225-0.001-0.337-0.004zM344.32 583.36c-6.918-1.043-12.16-6.946-12.16-14.073 0-0.002 0-0.005 0-0.007v-59.2h-64c-7.794-0.081-14.081-6.418-14.081-14.223 0-0.062 0-0.124 0.001-0.186v-115.831c0.080-7.744 6.337-14 14.073-14.080h64.007v-59.2c0-0.011 0-0.025 0-0.038 0-7.856 6.368-14.224 14.224-14.224 3.343 0 6.417 1.153 8.845 3.084l164.131 131.498c3.218 2.629 5.255 6.596 5.255 11.040s-2.038 8.411-5.23 11.020l-164.185 131.22c-2.45 2.059-5.64 3.309-9.121 3.309-0.62 0-1.231-0.040-1.83-0.117zM641.6 559.36h25.28c10.345-0.476 16.009-3.082 20.16-7.36 1.373-0.746 2.973-1.285 4.669-1.525l73.731-71.435c0.749-1.576 1.713-2.923 2.874-4.072-0.8 1.959-1.227 1.635-1.594 0.232-0.876-2.879-0.126-3.2-4.48-3.2h-120c-0.541 0.027-0.234-0.047-0.64 0-2.184 0.255-3.146 0.906-3.2 0.96s-0.705 1.243-0.96 3.52v78.72c0.257 2.29 0.899 3.459 0.96 3.52 0.059 0.060 1.051 0.38 3.2 0.64zM360.32 539.52l127.36-101.76-127.36-101.44v43.52c0.001 0.053 0.001 0.115 0.001 0.177 0 7.805-6.287 14.142-14.073 14.223h-63.688v87.36h63.68c7.744 0.080 14 6.337 14.080 14.073v43.847zM140.8 510.080c-7.22-0.747-12.802-6.798-12.802-14.153 0-0.087 0.001-0.174 0.002-0.26v-115.827c0.080-7.744 6.337-14 14.073-14.080h59.207c0.053-0.001 0.115-0.001 0.177-0.001 7.805 0 14.142 6.287 14.223 14.073v115.848c0.001 0.053 0.001 0.115 0.001 0.177 0 7.856-6.368 14.224-14.224 14.224-0.062 0-0.125 0-0.187-0.001h-59.191c-0.191 0.009-0.415 0.014-0.64 0.014s-0.449-0.005-0.672-0.016zM156.48 481.6h30.72v-87.36h-30.72v87.36z" />
<glyph unicode="&#xe625;" glyph-name="haf_ic_navigation" d="M510.080 914.24c-6.029-0.893-10.771-5.486-11.874-11.363l-32.606-162.717c-126.46-19.989-225.761-119.301-245.76-245.76l-162.88-32.64c-6.3-1.513-10.909-7.098-10.909-13.76s4.609-12.247 10.812-13.74l162.976-32.66c5.66-35.82 16.996-69.825 34.24-100.16 2.491-4.304 7.074-7.153 12.322-7.153 7.837 0 14.19 6.353 14.19 14.19 0 2.591-0.695 5.020-1.908 7.111-17.085 30.050-28.555 63.806-32.924 99.772-0.76 6.15-5.376 11.033-11.324 12.187l-102.596 20.453 102.72 20.48c6.007 1.26 10.56 6.203 11.219 12.313 14.828 121.99 111.438 218.609 233.581 233.447 6.15 0.76 11.033 5.376 12.187 11.324l20.453 102.596 20.48-102.72c1.26-6.007 6.203-10.56 12.313-11.219 36.048-4.379 70.066-15.947 100.327-33.261 2.023-1.177 4.452-1.871 7.043-1.871 7.837 0 14.19 6.353 14.19 14.19 0 5.248-2.849 9.831-7.085 12.285-30.569 17.488-64.797 28.896-100.868 34.596l-32.64 162.88c-1.356 6.503-7.040 11.319-13.85 11.319-0.645 0-1.281-0.043-1.903-0.127zM878.080 829.44c-2.899-0.24-5.506-1.322-7.623-2.996l-423.417-310.604c-2.067-1.553-3.672-3.614-4.645-6l-309.275-420.88c-1.873-2.375-3.005-5.412-3.005-8.712 0-7.805 6.327-14.133 14.133-14.133 3.301 0 6.337 1.131 8.742 3.028l423.97 311.017c2.067 1.553 3.672 3.614 4.645 6l309.275 420.88c1.7 2.305 2.72 5.201 2.72 8.336 0 7.805-6.327 14.133-14.133 14.133-0.489 0-0.971-0.025-1.447-0.073zM814.4 750.4l-256-348.8-348.8-256 256 348.8 348.8 256zM512 659.84c-116.898 0-211.84-94.942-211.84-211.84 0-22.875 3.511-44.919 10.24-65.6 1.68-6.063 7.15-10.44 13.642-10.44 7.805 0 14.133 6.327 14.133 14.133 0 1.777-0.328 3.478-0.927 5.045-5.793 17.806-8.927 36.975-8.927 56.863 0 101.624 82.056 183.68 183.68 183.68 19.951 0 39.003-3.104 56.96-8.96 1.338-0.461 2.879-0.728 4.482-0.728 7.824 0 14.167 6.343 14.167 14.167 0 6.222-4.012 11.508-9.59 13.411-20.829 6.789-43.065 10.27-66.020 10.27zM755.84 601.6c-7.055-0.863-12.465-6.816-12.465-14.034 0-2.61 0.707-5.054 1.941-7.152 17.042-29.996 28.555-63.87 32.924-99.774 0.76-6.15 5.376-11.033 11.324-12.187l102.596-20.453-102.72-20.48c-6.007-1.26-10.56-6.203-11.219-12.313-14.838-121.971-111.448-218.6-233.581-233.447-6.15-0.76-11.033-5.376-12.187-11.324l-20.453-102.596-20.48 102.72c-1.26 6.007-6.203 10.56-12.313 11.219-35.826 4.35-69.572 15.812-99.687 32.941-2.023 1.177-4.452 1.871-7.043 1.871-7.837 0-14.19-6.353-14.19-14.19 0-5.248 2.849-9.831 7.085-12.285 30.406-17.293 64.402-28.619 100.228-34.276l32.64-162.88c1.513-6.3 7.098-10.909 13.76-10.909s12.247 4.609 13.74 10.812l32.66 162.976c126.449 19.998 225.753 119.32 245.76 245.76l162.88 32.64c6.3 1.513 10.909 7.098 10.909 13.76s-4.609 12.247-10.812 13.74l-162.976 32.66c-5.655 35.725-17.042 69.567-34.24 99.84-2.433 4.471-7.095 7.454-12.455 7.454-0.573 0-1.137-0.034-1.692-0.1zM698.56 523.2c-7.015-0.902-12.381-6.836-12.381-14.024 0-1.743 0.316-3.412 0.893-4.954 5.688-17.651 8.608-36.516 8.608-56.222 0-101.624-82.056-183.68-183.68-183.68-19.848 0-38.778 3.155-56.64 8.96-1.338 0.461-2.879 0.728-4.482 0.728-7.824 0-14.167-6.343-14.167-14.167 0-6.222 4.012-11.508 9.59-13.411 20.74-6.738 42.868-10.27 65.7-10.27 116.898 0 211.84 94.942 211.84 211.84 0 22.666-3.311 44.452-9.92 64.96-1.745 5.965-7.167 10.249-13.588 10.249-0.173 0-0.345-0.003-0.516-0.009-0.166 0.010-0.39 0.015-0.615 0.015s-0.449-0.005-0.671-0.016zM512 476.16c-15.442 0-28.16-12.718-28.16-28.16s12.718-28.16 28.16-28.16c15.442 0 28.16 12.718 28.16 28.16s-12.718 28.16-28.16 28.16z" />
<glyph unicode="&#xe626;" glyph-name="haf_ic_nearby" d="M508.16 799.68c-50.762 0-99.062-10.737-142.72-30.080-5.557-2.019-9.455-7.255-9.455-13.4 0-7.856 6.368-14.224 14.224-14.224 2.473 0 4.799 0.631 6.825 1.741 40.072 17.75 84.383 27.483 131.126 27.483 155.855 0 285.581-109.623 316.48-256 1.182-6.763 7.010-11.838 14.022-11.838 7.856 0 14.224 6.368 14.224 14.224 0 1.198-0.148 2.361-0.427 3.472-33.612 159.23-175.075 278.622-344.299 278.622zM255.68 703.040c-7.481-0.38-14.465-4.044-19.84-9.92h-0.32c-10.672-11.989-9.864-30.897 2.24-41.6 11.951-10.755 30.471-9.755 41.28 2.24 0.073 0.079-0.072 0.24 0 0.32 10.708 11.895 9.906 30.643-1.92 41.28-0.079 0.072-0.24-0.071-0.32 0-5.937 5.308-13.642 8.060-21.12 7.68zM499.84 635.84c-80.857 0-146.56-65.755-146.56-146.56 0-5.111 0.389-9.689 0.64-13.76 0.264-1.291 0.664-2.436 1.193-3.504-0.84 2.014-0.908 1.782-0.873 1.584 0.165-0.93 0.344-1.886 0.64-2.88 6.525-56.796 40.21-112.101 72-154.24 32.333-42.86 63.36-72.32 63.36-72.32 2.541-2.401 5.978-3.877 9.76-3.877s7.219 1.476 9.767 3.883c86.599 82.078 118.5 156.515 130.233 201.274 0.051 0.195 0.27 0.446 0.32 0.64h-0.32c3.144 10.628 5.318 21.886 6.080 33.28 0.014 0.212-0.013 0.428 0 0.64 0.474 5.27 0.641 9.055 0.64 9.28 0 0.109 0 0.211 0 0.32-0.177 80.657-66.131 146.24-146.88 146.24zM499.84 607.36c65.493 0 118.4-52.659 118.4-118.080-0.001-0.048-0.001-0.104-0.001-0.16s0-0.112 0.001-0.169c0 0.009 0.167-1.771-0.32-6.711-0.002-0.095-0.004-0.207-0.004-0.32s0.001-0.225 0.004-0.337c-0.609-9.678-2.446-18.923-5.12-27.823-0.002-0.095-0.004-0.207-0.004-0.32s0.001-0.225 0.004-0.337c-9.912-38.143-38.178-103.446-112.96-177.903-10.101 10.172-27.717 28.384-50.24 58.24-30.822 40.857-62.154 94.595-66.88 142.72-0.428 1.431-1.019 2.679-1.768 3.814 1.434-2.614 1.464-2.451 1.448-2.214 0.001 0.048 0.001 0.104 0.001 0.16s0 0.112-0.001 0.169c-0.265 4.121-0.64 8.033-0.64 11.191 0 65.422 52.587 118.080 118.080 118.080zM185.6 566.4c-5.844-0.603-10.598-4.665-12.213-10.081-10.939-33.947-16.907-70.53-16.907-108.319 0-50.738 10.731-99.058 30.080-142.72 2.019-5.557 7.255-9.455 13.4-9.455 7.856 0 14.224 6.368 14.224 14.224 0 2.473-0.631 4.799-1.741 6.825-17.744 40.048-27.483 84.4-27.483 131.126 0 34.792 5.258 68.174 15.36 99.52 0.51 1.405 0.805 3.026 0.805 4.716 0 7.856-6.368 14.224-14.224 14.224-0.458 0-0.911-0.022-1.358-0.064zM499.84 522.88c-16.186 0-29.44-13.339-29.44-29.44 0-16.099 13.265-29.76 29.44-29.76 16.187 0 29.76 13.661 29.76 29.76 0 16.101-13.573 29.44-29.76 29.44zM838.4 407.36c-13.678 0.133-26.281-9.44-29.12-23.36-3.389-15.667 6.92-31.012 22.4-34.56 0.063-0.014-0.063-0.306 0-0.32 0.109-0.024 0.211 0.023 0.32 0 15.715-3.229 31.647 7.041 34.88 22.72 3.342 15.79-7.024 31.501-22.72 34.88-1.98 0.432-3.806 0.621-5.76 0.64zM778.56 263.040c-4.15-0.694-7.632-3.101-9.75-6.456-58.376-79.701-153.269-131.784-260.65-131.784-34.699 0-67.881 5.217-99.2 15.36-1.674 0.749-3.628 1.185-5.684 1.185-7.856 0-14.224-6.368-14.224-14.224 0-6.693 4.623-12.307 10.851-13.821 34.232-11.074 70.601-16.98 108.257-16.98 116.588 0 220.147 56.544 284.16 144 1.778 2.349 2.848 5.319 2.848 8.539 0 7.856-6.368 14.224-14.224 14.224-0.389 0-0.774-0.016-1.155-0.046-0.141 0.012-0.365 0.018-0.59 0.018s-0.449-0.005-0.672-0.016zM281.6 226.88c-7.585-0.374-15.090-3.709-20.48-9.6-0.048 0.001-0.104 0.001-0.16 0.001s-0.112 0-0.169-0.001c-10.546-12.004-9.514-30.783 2.249-41.6 1.322-1.364 2.911-2.461 4.682-3.21 7.566-7.629 26.417-6.934 37.238 5.13 10.827 11.969 9.627 30.772-2.24 41.6-0.080 0.073-0.239-0.072-0.32 0-5.942 5.267-13.317 8.049-20.8 7.68z" />
<glyph unicode="&#xe627;" glyph-name="haf_ic_offline_conn" d="M369.92 832c-49.175 0-90.34-35.766-98.24-82.88-0.204-0.904-0.321-1.941-0.321-3.006 0-0.068 0-0.136 0.001-0.204-0.814-1.726-1.288-3.76-1.288-5.905 0-0.171 0.003-0.34 0.009-0.509l-0.001-583.015c0.022-2.129 0.507-4.138 1.36-5.941-0.093-0.043-0.1-0.305-0.1-0.569 0-1.095 0.124-2.162 0.358-3.186 7.859-47.024 49.029-82.784 98.222-82.784h284.16c49.175 0 90.34 35.766 98.24 82.88 0.209 0.913 0.328 1.961 0.328 3.038 0 0.17-0.003 0.338-0.009 0.507 0.81 1.709 1.282 3.739 1.282 5.879 0 0.062 0 0.124-0.001 0.186v583.031c0.001 0.054 0.001 0.117 0.001 0.181 0 2.139-0.472 4.167-1.318 5.987 0.042 0.056 0.045 0.225 0.045 0.394 0 1.076-0.12 2.125-0.346 3.133-7.859 47.025-49.030 82.785-98.222 82.785h-284.16zM298.56 732.48h426.88v-568.96h-426.88v568.96zM512 689.92c-64.508 0-117.12-52.554-117.12-117.12 0-44.004 24.324-82.714 60.48-102.72 1.985-1.115 4.357-1.772 6.882-1.772 7.87 0 14.251 6.38 14.251 14.251 0 5.347-2.945 10.006-7.301 12.444-27.466 15.195-45.832 44.284-45.832 77.797 0 49.221 39.484 88.64 88.64 88.64 49.178 0 88.64-39.427 88.64-88.64 0-33.495-18.396-62.568-45.76-77.76-4.428-2.475-7.373-7.134-7.373-12.481 0-7.87 6.38-14.251 14.251-14.251 2.525 0 4.897 0.657 6.954 1.809 36.011 19.996 60.408 58.702 60.408 102.683 0 64.554-52.593 117.12-117.12 117.12zM512 628.16c-31.798 0-57.92-26.141-57.92-57.92 0-27.025 18.773-49.658 43.84-56v-194.24c-25.068-6.304-43.84-28.79-43.84-55.68 0-31.863 26.105-58.226 57.92-58.24 31.829 0 57.92 26.381 57.92 58.24 0 26.88-18.767 49.374-43.84 55.68v194.24c25.070 6.343 43.84 28.978 43.84 56 0 31.775-26.115 57.92-57.92 57.92z" />
<glyph unicode="&#xe628;" glyph-name="haf_ic_offline_station" d="M369.92 832c-49.175 0-90.34-35.766-98.24-82.88-0.204-0.904-0.321-1.941-0.321-3.006 0-0.068 0-0.136 0.001-0.204-0.814-1.726-1.288-3.76-1.288-5.905 0-0.171 0.003-0.34 0.009-0.509l-0.001-583.015c0.073-2.107 0.592-4.075 1.466-5.838-0.186 0.35-0.186 0.294-0.186 0.238s0-0.112 0.001-0.169c-0.001-0.039-0.001-0.095-0.001-0.151s0-0.112 0.001-0.169c-0.005-0.135-0.008-0.304-0.008-0.474 0-1.076 0.12-2.125 0.346-3.133 7.859-47.025 49.030-82.785 98.222-82.785h284.16c49.175 0 90.34 35.766 98.24 82.88 0.204 0.904 0.321 1.941 0.321 3.006 0 0.068 0 0.136-0.001 0.204 0.001 0.037 0.001 0.093 0.001 0.15s0 0.112-0.001 0.169c0.809 1.725 1.281 3.754 1.281 5.894 0 0.062 0 0.124-0.001 0.186v583.031c0.001 0.054 0.001 0.117 0.001 0.181 0 2.139-0.472 4.167-1.318 5.987 0.042 0.056 0.045 0.225 0.045 0.394 0 1.076-0.12 2.125-0.346 3.133-7.859 47.025-49.030 82.785-98.222 82.785h-284.16zM298.56 732.48h426.88v-568.96h-426.88v568.96zM512 604.48c-86.173 0-156.48-70.307-156.48-156.48s70.307-156.48 156.48-156.48c86.173 0 156.48 70.307 156.48 156.48s-70.307 156.48-156.48 156.48zM512 576c70.766 0 128-57.234 128-128s-57.234-128-128-128c-70.766 0-128 57.234-128 128s57.234 128 128 128zM467.52 519.040c-4.096 0-12.48-1.984-12.48-13.76v-114.56c0-11.756 8.384-13.76 12.48-13.76 4.106 0 12.16 2.015 12.16 13.76v49.28h64.64v-49.28c0-11.756 8.064-13.76 12.16-13.76s12.48 2.015 12.48 13.76v114.56c0 11.776-8.384 13.76-12.48 13.76s-12.16-1.984-12.16-13.76v-43.84h-64.64v43.84c0 11.776-8.054 13.76-12.16 13.76z" />
<glyph unicode="&#xe629;" glyph-name="haf_ic_push" d="M246.080 822.080c-64.985 0-118.080-53.031-118.080-118.080 0-40.617 20.754-76.414 52.16-97.6 2.52-2.307 5.891-3.721 9.593-3.721 7.856 0 14.225 6.369 14.225 14.225 0 5.645-3.288 10.521-8.052 12.82-23.934 16.125-39.445 43.275-39.445 74.277 0 49.68 40 89.6 89.6 89.6 30.347 0 56.714-14.81 72.96-37.76 2.609-3.701 6.866-6.088 11.68-6.088 7.869 0 14.248 6.379 14.248 14.248 0 3.055-0.961 5.885-2.598 8.205-21.346 30.151-56.575 49.875-96.29 49.875zM777.92 822.080c-39.867 0-75.295-19.91-96.64-50.24-1.607-2.275-2.568-5.105-2.568-8.16 0-7.869 6.379-14.248 14.248-14.248 4.814 0 9.071 2.388 11.65 6.043 16.245 23.086 42.848 38.125 73.31 38.125 49.56 0 89.6-39.96 89.6-89.6 0-30.457-15.254-57.075-38.4-73.28-3.701-2.609-6.088-6.866-6.088-11.68 0-7.869 6.379-14.248 14.248-14.248 3.055 0 5.885 0.961 8.205 2.598 30.426 21.304 50.515 56.698 50.515 96.61 0 65.028-53.116 118.080-118.080 118.080zM511.68 790.080c-194.051 0-351.68-157.66-351.68-351.68 0-101.758 43.401-193.343 112.64-257.6l-82.24-82.56c-2.581-2.58-4.177-6.144-4.177-10.082 0-7.873 6.382-14.255 14.255-14.255 3.937 0 7.502 1.596 10.082 4.177l83.84 84.16c59.857-47.181 135.258-75.52 217.28-75.52 82.014 0 157.422 28.339 217.28 75.52l84.16-84.16c2.58-2.581 6.144-4.177 10.082-4.177 7.873 0 14.255 6.382 14.255 14.255 0 3.937-1.596 7.502-4.177 10.082l-82.56 82.56c69.242 64.257 112.64 155.841 112.64 257.6 0 194.022-157.658 351.68-351.68 351.68zM511.68 761.6c178.653 0 323.2-144.547 323.2-323.2 0-178.642-144.548-323.2-323.2-323.2-178.674 0-323.2 144.556-323.2 323.2 0 178.655 144.515 323.2 323.2 323.2zM328.64 621.44c-7.268-0.697-12.905-6.772-12.905-14.163 0-3.977 1.632-7.573 4.263-10.154l179.202-178.882c1.398-1.534 3.11-2.755 5.038-3.567l-2.478 0.687c-0.001-0.048-0.001-0.104-0.001-0.16s0-0.112 0.001-0.169c1.494-1.089 3.262-1.914 5.177-2.352-2.887 0.348-1.289-0.756 0.494-1.51-3.034 1.467-1.389 0.311 0.454-0.467-2.823 1.987-1.214 1.445 0.492 1.204-2.7-0.23-1.055-1.386 0.788-2.164-4.157 2.737-4.101 2.736-4.045 2.736s0.112 0 0.169 0.001c2.175-1.433 4.85-2.286 7.725-2.286 4.689 0 8.847 2.268 11.439 5.768l162.587 88.039c4.807 2.351 8.060 7.205 8.060 12.819 0 7.856-6.369 14.225-14.225 14.225-0.761 0-1.507-0.060-2.236-0.175-2.202-0.256-4.263-1.025-6.047-2.183l-158.352-85.806-174.080 174.4c-2.58 2.612-6.162 4.229-10.121 4.229-0.493 0-0.98-0.025-1.46-0.074z" />
<glyph unicode="&#xe62a;" glyph-name="uniE62A" d="M239.040 834.24c-64.985 0-118.080-53.031-118.080-118.080 0-40.616 20.434-76.735 51.84-97.92 2.243-1.534 5.015-2.45 8.001-2.45 7.892 0 14.289 6.398 14.289 14.289 0 4.907-2.473 9.236-6.241 11.809-23.899 16.12-39.409 43.27-39.409 74.272 0 49.68 39.999 89.6 89.6 89.6 30.347 0 56.714-14.81 72.96-37.76 2.609-3.701 6.866-6.088 11.68-6.088 7.869 0 14.248 6.379 14.248 14.248 0 3.055-0.961 5.885-2.598 8.205-21.346 30.151-56.575 49.875-96.29 49.875zM770.88 834.24c-39.866 0-75.295-19.91-96.64-50.24-1.607-2.275-2.568-5.105-2.568-8.16 0-7.869 6.379-14.248 14.248-14.248 4.814 0 9.071 2.388 11.65 6.043 16.245 23.086 42.848 38.125 73.31 38.125 49.561 0 89.6-39.96 89.6-89.6 0-30.458-15.254-57.394-38.4-73.6-4.488-2.452-7.482-7.138-7.482-12.524 0-7.856 6.368-14.224 14.224-14.224 3.695 0 7.060 1.409 9.589 3.718 30.46 21.324 50.549 56.718 50.549 96.63 0 65.027-53.117 118.080-118.080 118.080zM504.64 801.92c-194.051 0-351.68-157.341-351.68-351.36 0-101.837 43.306-193.656 112.64-257.92l-82.56-82.56c-2.581-2.58-4.177-6.144-4.177-10.082 0-7.873 6.382-14.255 14.255-14.255 3.937 0 7.502 1.596 10.082 4.177l84.16 84.16c59.832-47.109 135.327-75.2 217.28-75.2 81.966 0 157.182 28.386 216.96 75.52l84.48-84.48c2.628-3.19 6.579-5.208 11.002-5.208 7.856 0 14.224 6.368 14.224 14.224 0 4.502-2.092 8.516-5.357 11.122l-82.589 82.902c69.159 64.256 112.64 155.836 112.64 257.6 0 194.021-157.339 351.36-351.36 351.36zM504.64 773.44c178.653 0 323.2-144.227 323.2-322.88s-144.557-323.2-323.2-323.2c-178.674 0-323.2 144.556-323.2 323.2 0 178.655 144.515 322.88 323.2 322.88zM321.6 633.6c-7.41-0.542-13.216-6.687-13.216-14.188 0-4.128 1.758-7.845 4.567-10.443l177.609-177.609c1.905-4.419 5.861-7.634 10.636-8.467 0.475-0.312 1.853-0.622 3.29-0.719-2.999 0.545-2.943 0.545-2.886 0.545s0.112 0 0.169 0.001c1.127-0.326 2.431-0.514 3.779-0.514 4.752 0 8.961 2.331 11.544 5.912l162.909 88.042c4.64 2.406 7.755 7.173 7.755 12.668 0 7.856-6.368 14.224-14.224 14.224-0.201 0-0.401-0.004-0.6-0.012-2.525-0.142-4.867-0.937-6.867-2.22l-158.865-86.099-174.080 174.4c-2.586 2.746-6.24 4.462-10.295 4.48-0.136 0.009-0.359 0.014-0.585 0.014s-0.449-0.005-0.672-0.016z" />
<glyph unicode="&#xe62b;" glyph-name="uniE62B" d="M433.92 360.32v-284.16h455.040v284.16h-455.040z" />
<glyph unicode="&#xe62c;" glyph-name="uniE62C" d="M583.68 295.68c-45.292 0-78.72-29.965-78.72-77.12 0-45.906 33.428-77.44 78.72-77.44 45.906 0 79.36 31.534 79.36 77.44 0 47.155-33.454 77.12-79.36 77.12zM704.64 293.76c-5.202 0-16.32-2.99-16.32-19.2v-116.8c0-12.462 8.438-15.040 12.8-15.040 4.372 0 13.12 2.578 13.12 15.040v91.52h0.64l68.16-94.4c7.066-9.554 12.209-12.16 18.24-12.16 5.171 0 16.64 2.99 16.64 19.2v117.12c0 12.472-8.788 14.72-13.12 14.72-4.372 0-13.12-2.248-13.12-14.72v-91.52h-0.64l-68.16 94.080c-6.861 9.544-12.424 12.16-18.24 12.16zM578.24 272.32c1.813 0.179 3.545 0 5.44 0 30.525 0 50.89-23.429 50.88-53.76 0-31.355-20.754-54.080-50.88-54.080-29.921 0-50.24 22.715-50.24 54.080 0 28.435 17.603 51.072 44.8 53.76z" />
<glyph unicode="&#xe62d;" glyph-name="haf_ic_reachability" d="M512 832c-211.961 0-384-172.079-384-384 0-211.961 172.040-384 384-384 37.887 0 74.534 5.756 109.12 16 7.821-9.669 19.639-16 32.96-16 23.397 0 42.88 19.163 42.88 42.56 0 1.629-0.456 3.214-0.64 4.8 118.931 65.277 199.68 191.479 199.68 336.64 0 102.118-40.162 194.86-105.28 263.68 3.529 6.193 5.76 13.204 5.76 20.8 0 23.397-19.163 42.56-42.56 42.56-9.859 0-18.936-3.591-26.24-9.28-61.478 41.817-135.806 66.24-215.68 66.24zM512 803.52c74.363 0 143.286-22.817 200.32-61.76-0.677-2.978-1.28-6.109-1.28-9.28 0-23.397 19.483-42.56 42.88-42.56 5.602 0 11.088 0.888 16 2.88 60.528-63.727 97.6-149.837 97.6-244.8 0-134.138-73.914-250.811-183.36-311.36-7.795 7.795-18.381 12.8-30.080 12.8-23.397 0-42.56-19.483-42.56-42.88-31.547-9.15-64.998-14.080-99.52-14.080-196.595 0-355.52 158.925-355.52 355.52 0 196.552 158.925 355.52 355.52 355.52zM512 711.040c-93.014 0-174.661-48.598-221.44-121.6-1.981 0.286-4.023 0.64-6.080 0.64-23.397 0-42.56-19.163-42.56-42.56 0-13.161 6.21-24.816 15.68-32.64-5.627-21.38-8.64-43.756-8.64-66.88 0-145.062 117.926-263.040 263.040-263.040 145.241 0 263.051 117.992 263.040 263.040 0 145.046-117.797 263.040-263.040 263.040zM512 682.56c129.865 0 234.56-104.888 234.56-234.56 0.010-129.671-104.693-234.56-234.56-234.56-129.727 0-234.56 104.882-234.56 234.56 0 19.684 2.487 38.698 7.040 56.96 23.397 0 42.56 19.163 42.56 42.56 0 11.128-4.457 21.194-11.52 28.8 41.848 63.995 114.168 106.24 196.48 106.24zM512 583.040c-74.376 0-135.040-60.607-135.040-135.040 0-74.444 60.679-135.040 135.040-135.040 22.013 0 42.743 5.342 61.12 14.72 6.928-4.763 15.38-7.68 24.32-7.68 23.397 0 42.56 19.163 42.56 42.56 0 8.94-2.917 17.392-7.68 24.32 9.373 18.374 14.723 39.124 14.72 61.12 0 74.422-60.546 135.040-135.040 135.040zM512 554.56c59.118 0 106.56-47.514 106.56-106.56 0.002-15.892-3.427-30.962-9.6-44.48-3.663 1.052-7.538 1.92-11.52 1.92-23.397 0-42.88-19.483-42.88-42.88 0-3.982 0.868-7.857 1.92-11.52-13.522-6.18-28.57-9.6-44.48-9.6-58.964 0-106.56 47.515-106.56 106.56 0 59.035 47.591 106.56 106.56 106.56zM512 476.48c-15.542 0-28.48-12.938-28.48-28.48s12.938-28.48 28.48-28.48c15.542 0 28.48 12.938 28.48 28.48s-12.938 28.48-28.48 28.48z" />
<glyph unicode="&#xe62e;" glyph-name="haf_ic_rss" d="M169.28 804.16c-7.592-0.352-13.614-6.593-13.614-14.24 0-7.872 6.382-14.254 14.254-14.254 0.225 0 0.449 0.005 0.672 0.016 361.987-17.33 651.598-307.055 669.088-669.121 0.351-7.593 6.592-13.616 14.24-13.616 7.872 0 14.254 6.382 14.254 14.254 0 0.226-0.005 0.45-0.016 0.674-18.185 376.431-319.89 678.269-696.319 696.288-0.191 0.009-0.415 0.014-0.64 0.014s-0.449-0.005-0.672-0.016c-0.16 0.010-0.383 0.016-0.608 0.016s-0.449-0.005-0.672-0.016zM169.6 540.8c-7.727-0.18-13.921-6.487-13.921-14.24 0-7.867 6.377-14.244 14.244-14.244 0.112 0 0.223 0.001 0.334 0.004 216.979-16.453 389.481-189.072 406.063-406.080 0.518-7.458 6.695-13.312 14.24-13.312 7.882 0 14.272 6.39 14.272 14.272 0 0.338-0.012 0.673-0.035 1.005-17.637 230.784-201.797 415.092-432.638 432.595-0.191 0.009-0.415 0.014-0.64 0.014s-0.449-0.005-0.672-0.016c-0.16 0.010-0.383 0.016-0.608 0.016s-0.449-0.005-0.672-0.016zM241.28 262.72c-46.943 0-85.44-38.462-85.44-85.44 0-46.936 38.492-85.44 85.44-85.44 46.921 0 85.44 38.498 85.44 85.44 0 46.975-38.522 85.44-85.44 85.44z" />
<glyph unicode="&#xe62f;" glyph-name="haf_ic_settings" d="M463.040 832c-5.453-0.502-9.977-4.014-11.928-8.843l-43.432-103.797c-2.454-0.889-4.904-1.908-7.36-2.88-0.048 0.001-0.104 0.001-0.16 0.001s-0.112 0-0.169-0.001c-2.377-1.038-5.276-2.123-7.991-3.2l-104.32 41.6c-1.493 0.582-3.222 0.919-5.030 0.919-3.904 0-7.441-1.573-10.011-4.12l-65.919-65.279c-2.655-2.587-4.302-6.197-4.302-10.191 0-1.981 0.405-3.868 1.137-5.581l43.165-102.947c-1.201-2.659-2.455-5.070-3.52-8-0.087-0.239-0.234-0.399-0.32-0.64-1.168-2.837-2.192-5.389-3.2-8l-103.040-44.16c-5.061-2.199-8.553-7.117-8.641-12.862l0.001-92.418c0-0.011 0-0.025 0-0.038 0-5.838 3.517-10.855 8.548-13.046l103.452-43.876c2.128-5.594 4.247-11.146 6.72-16.64l-41.6-104.32c-0.638-1.558-1.008-3.366-1.008-5.26 0-3.949 1.609-7.522 4.207-10.099l65.281-64.641c2.554-2.464 6.035-3.982 9.87-3.982 1.982 0 3.869 0.405 5.583 1.137l103.587 42.525c5.529-2.568 10.901-4.887 16.32-6.72l43.84-104c2.227-5.123 7.244-8.64 13.082-8.64 0.013 0 0.027 0 0.040 0h92.478c0.011 0 0.025 0 0.038 0 5.838 0 10.855 3.517 13.046 8.548l43.876 104.732c2.508 0.957 5.066 1.834 7.68 2.88 0.089 0.034 0.231-0.034 0.32 0 2.294 0.87 4.642 1.887 7.040 2.88l105.92-41.92c1.558-0.638 3.366-1.008 5.26-1.008 3.949 0 7.522 1.609 10.099 4.207l64.641 65.921c2.464 2.554 3.982 6.035 3.982 9.87 0 1.982-0.405 3.869-1.137 5.583l-42.525 104.547c1.043 2.573 2.339 5.207 3.2 7.68 0.809 2.369 1.437 4.894 2.24 7.36l105.28 44.16c5.123 2.227 8.64 7.244 8.64 13.082 0 0.013 0 0.027 0 0.040v93.118c-0.040 5.93-3.704 10.995-8.886 13.094l-105.034 43.226c-0.76 2.255-1.473 4.486-2.24 6.72-1.039 2.999-2.816 5.337-4.16 8l43.2 105.28c0.697 1.621 1.102 3.507 1.102 5.489 0 3.995-1.647 7.605-4.299 10.188l-65.923 65.603c-2.578 2.599-6.151 4.208-10.1 4.208-1.894 0-3.702-0.37-5.355-1.043l-103.905-43.486c-2.536 1.202-5.089 2.523-7.68 3.52-0.048 0.001-0.104 0.001-0.16 0.001s-0.112 0-0.169-0.001c-2.263 0.848-5.066 1.862-7.671 2.88l-44.16 104c-2.227 5.123-7.244 8.64-13.082 8.64-0.013 0-0.027 0-0.040 0h-93.118c-0.191 0.009-0.415 0.014-0.64 0.014s-0.449-0.005-0.672-0.016zM473.92 803.52h74.24l43.2-101.12c1.723-3.945 5.069-6.906 9.17-8.073 3.168-1.226 7.453-3.049 11.95-4.727v0.32c3.57-1.374 7.021-3.314 10.24-5.12 1.987-1.122 4.364-1.783 6.894-1.783 2.018 0 3.938 0.42 5.677 1.178l101.028 42.204 52.8-52.16-41.92-102.72c-0.638-1.558-1.008-3.366-1.008-5.26 0-2.662 0.731-5.154 2.004-7.285 2.101-3.512 3.752-6.612 4.764-9.535 1.41-4.11 2.712-8.177 4.16-12.48 1.453-4.292 4.779-7.605 8.978-9.013l101.422-41.867v-73.92l-102.4-43.52c-4.133-1.765-7.21-5.312-8.297-9.648-1.133-3.522-2.795-7.727-4.183-11.792h0.32c-1.365-3.923-2.979-7.476-4.48-10.56-0.918-1.83-1.456-3.987-1.456-6.269 0-2.012 0.418-3.927 1.172-5.663l41.244-101.348-51.52-52.48-102.4 40.96c-1.548 0.63-3.345 0.995-5.227 0.995-2.167 0-4.222-0.485-6.060-1.352-3.429-1.605-7.433-3.248-11.433-4.763-0.048 0.001-0.104 0.001-0.16 0.001s-0.112 0-0.169-0.001c-3.971-1.599-8.458-3.417-13.431-5.44-3.914-1.655-6.88-4.898-8.126-8.9l-41.794-99.9h-73.6l-42.88 100.8c-1.738 4.293-5.389 7.494-9.867 8.575-6.694 1.895-15.013 4.904-23.733 9.345-1.919 1.029-4.198 1.633-6.618 1.633-1.88 0-3.675-0.365-5.318-1.027l-100.064-41.246-52.16 51.2 40.32 101.12c0.673 1.596 1.064 3.452 1.064 5.399 0 2.225-0.511 4.33-1.422 6.206-4.084 8.557-7.649 16.878-10.843 25.835-1.477 4.142-4.7 7.339-8.759 8.749l-98.761 42.131v73.6l99.84 42.56c3.914 1.655 6.88 4.898 8.126 8.9 1.593 3.768 3.26 8.379 4.994 12.54 0.002 0.095 0.004 0.207 0.004 0.32s-0.001 0.225-0.004 0.337c1.436 4.023 3.426 8.124 5.44 12.143 0.918 1.83 1.456 3.987 1.456 6.269 0 2.012-0.418 3.927-1.172 5.663l-41.564 99.428 52.48 52.16 100.8-40.32c1.563-0.643 3.378-1.016 5.28-1.016s3.717 0.373 5.375 1.051c4.538 1.813 9.254 3.348 13.985 5.406v0.32c3.857 1.513 7.696 2.882 11.52 4.16 4.292 1.453 7.605 4.779 9.013 8.978l41.867 99.822zM511.36 601.6c-21.267 0-41.498-4.032-60.16-12.16-18.53-8.19-34.733-19.255-48.64-32.96-0.001-0.048-0.001-0.104-0.001-0.16s0-0.112 0.001-0.169c-13.788-13.825-24.748-30.227-32.64-48.631-7.937-18.776-12.16-38.731-12.16-59.52 0-20.817 4.177-40.69 12.16-59.2 7.909-18.51 18.892-34.87 32.64-48.64 13.992-13.958 30.383-24.764 48.96-32.64 18.66-7.979 38.623-11.84 59.84-11.84 20.928 0 40.895 3.9 59.52 11.84 18.197 7.875 34.347 18.689 48.32 32.64 13.767 13.778 24.757 30.122 32.64 48.64 7.977 18.496 12.16 38.368 12.16 59.2 0 20.805-3.908 40.757-11.84 59.52-0.048 0.001-0.104 0.001-0.16 0.001s-0.112 0-0.169-0.001c-7.857 18.421-18.811 34.797-32.631 48.64 0.001 0.048 0.001 0.104 0.001 0.16s0 0.112-0.001 0.169c-13.888 13.689-29.852 24.443-48 32.631-1.322 1.364-2.911 2.461-4.682 3.21-14.265 5.197-34.179 9.27-55.158 9.27zM511.36 573.12c17.21 0 32.943-3.426 48-9.92 0.094-0.041 0.226 0.041 0.32 0 14.969-6.787 27.992-15.74 39.36-26.88 0.106-0.104 0.214-0.216 0.32-0.32 11.019-11.116 20.119-24.358 26.56-39.36 0.041-0.097-0.041-0.223 0-0.32 6.384-15.207 9.6-31.243 9.6-48.32 0-17.219-3.18-33.114-9.6-48-6.493-15.253-15.6-28.391-26.88-39.68-11.422-11.404-24.195-19.997-39.36-26.56-15.146-6.457-30.951-9.6-48.32-9.6-17.716 0-33.631 3.182-48.64 9.6-0.048 0.001-0.104 0.001-0.16 0.001s-0.112 0-0.169-0.001c-15.472 6.563-28.247 15.164-39.671 26.56-11.259 11.277-20.351 24.398-26.88 39.68-6.414 14.873-9.6 30.765-9.6 48 0 17.201 3.46 33.358 9.92 48.64 6.493 15.004 15.552 28.269 26.56 39.36 11.509 11.342 24.472 20.337 40 27.2 15.007 6.536 30.974 9.92 48.64 9.92z" />
<glyph unicode="&#xe630;" glyph-name="haf_ic_share" d="M734.72 756.16c-46.925 0-85.44-38.294-85.44-85.12 0-8.675 1.388-17.078 3.84-24.96l-295.36-148.48c-15.622 20.871-40.539 34.56-68.48 34.56-46.925 0-85.12-38.294-85.12-85.12s38.195-85.12 85.12-85.12c28.1 0 53.196 13.808 68.8 34.88l295.040-146.88c-2.449-7.924-3.84-16.264-3.84-24.96 0-46.957 38.483-85.12 85.44-85.12s85.12 38.163 85.12 85.12c0 46.957-38.163 85.44-85.12 85.44-28.211 0-53.214-13.927-68.8-35.2l-295.040 147.2c2.396 7.816 3.84 16.070 3.84 24.64 0 8.675-1.388 17.060-3.84 24.96l295.36 148.8c15.612-20.897 40.446-34.56 68.48-34.56 46.925 0 85.12 37.974 85.12 84.8s-38.195 85.12-85.12 85.12z" />
<glyph unicode="&#xe631;" glyph-name="haf_ic_shop" d="M512 832c-211.961 0-384-172.070-384-384s172.039-384 384-384c211.931 0 384 172.069 384 384s-172.069 384-384 384zM512 803.52c196.563 0 355.52-158.957 355.52-355.52s-158.957-355.52-355.52-355.52c-196.595 0-355.52 158.956-355.52 355.52s158.925 355.52 355.52 355.52zM287.040 660.8c-1.192-0.171-2.266-0.463-3.282-0.868-5.216-0.514-10.436-6.407-10.436-13.52 0-4.926 2.504-9.267 6.308-11.82l54.131-38.752 41.28-232.32c-0.001-0.048-0.001-0.104-0.001-0.16s0-0.112 0.001-0.169c0.749-1.568 1.713-2.915 2.874-4.064-2.559 3.289-2.562 3.121-2.562 2.952s0.003-0.337 0.009-0.504c-0.001-0.023-0.002-0.079-0.002-0.136s0-0.112 0.001-0.169c0.241-1.533 0.694-2.921 1.334-4.198 0.055 0.070 1.019-1.277 2.18-2.425-2.557 3.337-2.558 3.225-2.558 3.112s0.001-0.225 0.004-0.337l13.76-65.903c-7.324-5.905-12.8-13.996-12.8-24 0-17.519 14.468-32 32-32 12.027 0 20.773 7.963 26.24 17.92h148.8c5.48-9.933 13.911-17.92 25.92-17.92 17.513 0 32 14.451 32 32s-14.487 32-32 32c-11.97 0-20.424-7.72-25.92-17.6h-148.8c-3.958 7.152-9.715 11.557-17.6 14.080l-10.88 53.12h264.64c0.782-0.153 1.682-0.24 2.602-0.24 2.069 0 4.035 0.442 5.808 1.236 2.846 1.261 5.2 3.427 6.698 6.133-0.052-0.479 0.934 1.358 1.488 3.373-0.778-2.608 0.047-0.841 0.485 1.075-0.878-2.753-0.277-1.040-0.021 0.783-0.264-2.023 0.208-0.037 0.228 2.058-0.007-0.29-0.006-0.234-0.006-0.178s0 0.112-0.001 0.169l40.32 183.351c0.559 1.467 0.883 3.163 0.883 4.935 0 7.856-6.369 14.225-14.225 14.225-7.453 0-13.567-5.732-14.175-13.028l-38.723-175.412h-261.76l-40.32 226.56c0.002 0.095 0.004 0.207 0.004 0.32s-0.001 0.225-0.004 0.337v0.623c-0.179 1.516-0.569 2.899-1.143 4.18 0.239-0.009-0.161 1.136-0.69 2.204 0.099-0.218-1.042 1.491-2.481 2.898 0.713-0.611-1.071 0.953-3.152 2.019 1.728-0.771-0.217 0.431-2.389 1.125 2.244-0.571 0.408 0.415-1.608 0.969 2.639-1.033 0.926-0.432-0.898-0.176l-52.28 39.261c-2.36 1.807-5.354 2.896-8.603 2.896-0.238 0-0.475-0.006-0.71-0.017zM427.2 520.96c-7.261-0.756-12.873-6.843-12.873-14.24 0-7.905 6.408-14.313 14.313-14.313 0.507 0 1.008 0.026 1.502 0.078l219.778-0.005c7.865 0 14.24 6.375 14.24 14.24s-6.375 14.24-14.24 14.24h-219.84c-0.239 0.014-0.519 0.023-0.8 0.023s-0.561-0.008-0.838-0.024c-0.153 0.011-0.377 0.016-0.602 0.016s-0.449-0.005-0.672-0.016zM432 454.080c-7.261-0.756-12.873-6.843-12.873-14.24 0-7.905 6.408-14.313 14.313-14.313 0.507 0 1.008 0.026 1.502 0.078l200.898-0.005c7.865 0 14.24 6.375 14.24 14.24s-6.375 14.24-14.24 14.24h-200.96c-0.239 0.014-0.519 0.023-0.8 0.023s-0.561-0.008-0.838-0.024c-0.153 0.011-0.377 0.016-0.602 0.016s-0.449-0.005-0.672-0.016z" />
<glyph unicode="&#xe632;" glyph-name="haf_ic_spot" d="M512 830.72c-211.281 0-382.72-171.439-382.72-382.72s171.439-382.72 382.72-382.72c211.281 0 382.72 171.439 382.72 382.72s-171.439 382.72-382.72 382.72zM512 802.56c195.908 0 354.56-158.652 354.56-354.56s-158.652-354.56-354.56-354.56c-195.908 0-354.56 158.652-354.56 354.56s158.652 354.56 354.56 354.56zM512 618.88c-94.236 0-170.88-76.644-170.88-170.88s76.644-170.88 170.88-170.88c94.236 0 170.88 76.644 170.88 170.88s-76.644 170.88-170.88 170.88z" />
<glyph unicode="&#xe633;" glyph-name="haf_ic_start" d="M512 779.52c-100.119 0-181.44-81.309-181.44-181.44 0-68.383 37.822-128.164 93.76-159.040 1.985-1.115 4.357-1.772 6.882-1.772 7.87 0 14.251 6.38 14.251 14.251 0 5.347-2.945 10.006-7.301 12.444-47.21 26.055-79.112 76.221-79.112 134.117 0 84.783 68.185 152.96 152.96 152.96 84.786 0 152.96-68.176 152.96-152.96 0-57.866-31.945-108.041-79.040-134.080-4.428-2.475-7.373-7.134-7.373-12.481 0-7.87 6.38-14.251 14.251-14.251 2.525 0 4.897 0.657 6.954 1.809 55.806 30.858 93.688 90.651 93.688 159.003 0 100.13-81.312 181.44-181.44 181.44zM512 679.36c-46.957 0-85.44-38.163-85.44-85.12 0-42.167 31.026-77.39 71.36-84.16v-584.32c-0.091-0.606-0.144-1.306-0.144-2.017 0-7.856 6.368-14.224 14.224-14.224s14.224 6.368 14.224 14.224c0 0.712-0.052 1.411-0.153 2.095l0.009 584.243c40.334 6.77 71.36 41.993 71.36 84.16 0 46.957-38.483 85.12-85.44 85.12z" />
<glyph unicode="&#xe634;" glyph-name="haf_ic_station" d="M512 821.156c-205.908 0-373.156-167.248-373.156-373.156s167.248-373.156 373.156-373.156c205.908 0 373.156 167.248 373.156 373.156s-167.248 373.156-373.156 373.156zM512 764.458c174.768 0 316.458-141.69 316.458-316.458s-141.69-316.458-316.458-316.458c-174.79 0-316.458 141.69-316.458 316.458s141.668 316.458 316.458 316.458zM395.306 633.26c-8.673 0-25.71-4.979-25.71-29.008v-312.498c0-24.029 17.021-29.008 25.71-29.008 8.185 0 25.054 4.979 25.054 29.008v141.086h183.28v-141.086c0-24.029 17.021-29.008 25.71-29.008 8.185 0 25.054 4.979 25.054 29.008v312.498c0 24.029-16.869 29.008-25.054 29.008-8.673 0-25.71-4.979-25.71-29.008v-126.582h-183.28v126.582c0 24.029-16.869 29.008-25.054 29.008z" />
<glyph unicode="&#xe635;" glyph-name="haf_ic_stationinfo" d="M512 832c-211.961 0-384-172.070-384-384s172.039-384 384-384c211.931 0 384 172.069 384 384s-172.069 384-384 384zM512 803.52c196.563 0 355.52-158.957 355.52-355.52s-158.957-355.52-355.52-355.52c-196.595 0-355.52 158.956-355.52 355.52s158.925 355.52 355.52 355.52zM511.68 630.72c-17.418 0-31.68-13.622-31.68-31.040 0-16.886 14.262-30.72 31.68-30.72 17.388 0 32.32 13.312 32.32 30.72 0 17.91-14.932 31.040-32.32 31.040zM511.68 516.16c-8.192 0-24-4.042-24-26.56v-197.76c0-22.528 15.808-26.56 24-26.56s24 4.032 24 26.56v197.76c0 22.518-15.808 26.56-24 26.56z" />
<glyph unicode="&#xe636;" glyph-name="haf_ic_stop" d="M713.28 670.080c-1.336-0.084-2.58-0.282-3.782-0.586-4.013-0.412-8.549-2.978-11.76-6.716l-185.737-185.658-186.56 186.56c-3.726 3.83-8.929 6.206-14.687 6.206-0.801 0-1.591-0.046-2.367-0.135-10.331-1.036-18.403-9.764-18.403-20.377 0-5.823 2.43-11.078 6.33-14.807l186.568-186.567-186.56-186.56c-3.726-3.726-6.031-8.874-6.031-14.56 0-11.372 9.219-20.591 20.591-20.591 5.686 0 10.834 2.305 14.56 6.031l186.56 186.56 186.56-186.56c3.726-3.726 8.874-6.031 14.56-6.031 11.372 0 20.591 9.219 20.591 20.591 0 5.686-2.305 10.834-6.031 14.56l-186.56 186.56 186.56 186.56c4.054 3.753 6.583 9.103 6.583 15.044 0 11.312-9.17 20.482-20.482 20.482-0.176 0-0.352-0.002-0.527-0.007z" />
</font>
</defs>
</svg>
